Ссылка на приватное зеркало всего за 1$. Внимание количество ограничено!!!

OK

1+1

iTunes

мы

OK

1

WEB-DLRip

Джокер

Пифагор

Ведьмак / The Witcher сериал

Лицензия

ПШазам

ОК

Оно 2

iTunes

30
pack

Вам бонус

ВАЖНО

!!Акция!!

Alien_RageХит недели

RePack

Resident Evil 21

ИГРА 18+

pack

RePack

jed

!!Акция!!

Alien_Rage

RePack

fifa19

RePack

Assassins Creed: Odyssey

RePack

NEED FOR SPEED™ PAYBACK

4 сезон

9 сезон

Бесстыжие 9 сезон

Все сериалы

все сериалы на PB.wtf

RePack

FAR CRY 5
  

Очень плохие парни / Big Bad Wolves (Аарон Кешалес, Навот Папушадо) [2013, триллер, криминал, комедия, BDRip (AVC) by msltel] MVO, AVO, 2 x VO pibit.top

Очень плохие парни через торрент pibit.top

Раздают: 2 [ 0 KB/s ]
Размер: 3.58 GB | Добавлен: 2 мес. назад | Торрент скачан:91 раз
Скачать  

21-11-2019 08:26 Очень плохие парни Скачать торрент  

Название: Очень плохие парни
Оригинальное название: Big Bad Wolves
Год выпуска: 2013
Страна: Израиль
Жанр: триллер, криминал, комедия
Продолжительность: 01:49:43
Перевод: профессиональный многоголосый, авторский, любительский одноголосый

Режиссер: Аарон Кешалес, Навот Папушадо
В ролях: Цахи Град, Лиор Ашкенази, Ротем Кейнан, Довале Гликман, Менаш Ной, Двир Бенедек, Нати Клюгер, Каис Насеф, Ами Вайнберг, Гай Адлер, Артур Перри, Гур Бентвич

О фильме: Серия жестоких убийств связала в тугой узел судьбы трех людей: отца жертвы, полицейского и главного подозреваемого. Отец жаждет мести. Полицейский действует за рамками закона. А главный подозреваемый, преподаватель теологии, отпущен на свободу по недосмотру полиции...



Качество: BDRip (AVC)
Формат: MKV
Видео: MPEG-4 AVC, 2690 Кбит/с, 1024x428, 23.976 кадр/с
Аудио 1: русский, AC3, 448 kbps, 6 ch, 48 kHz [закадровый многоголосый, Лицензия]
Аудио 2: русский, AC3, 448 kbps, 6 ch, 48 kHz [авторский, Юрий Немахов]
Аудио 3: русский, AC3, 448 kbps, 6 ch, 48 kHz [закадровый одноголосый, Andi]
Аудио 4: русский, AC3, 192 kbps, 2 ch, 48 kHz [закадровый одноголосый, Хихидок]
Аудио 5: иврит, AC3, 448 kbps, 6 ch, 48 kHz [оригинал]
Субтитры: английские
Главы/чаптеры
Общее
Уникальный идентификатор : 238213862471985556157455428620178100243 (0xB3365232F937B424895DA12CC3171013)
Полное имя : D:\Video\Очень плохие парни.2013.BDRip (AVC) by msltel.mkv
Формат : Matroska
Версия формата : Version 4
Размер файла : 3,58 Гбайт
Продолжительность : 1 ч. 49 м.
Общий поток : 4677 Кбит/сек
Название фильма : Rip by msltel
Дата кодирования : UTC 2019-11-21 02:08:09
Программа кодирования : mkvmerge v8.2.0 ('World of Adventure') 64bit
Библиотека кодирования : libebml v1.3.1 + libmatroska v1.4.2

Видео
Идентификатор : 1
Формат : AVC
Формат/Информация : Advanced Video Codec
Профиль формата : [email protected]
Настройки формата : CABAC / 9 Ref Frames
Параметр CABAC формата : Да
Параметр RefFrames формата : 9 кадров
Идентификатор кодека : V_MPEG4/ISO/AVC
Продолжительность : 1 ч. 49 м.
Битрейт : 2690 Кбит/сек
Ширина : 1024 пикселя
Высота : 428 пикселей
Соотношение сторон : 2,40:1
Режим частоты кадров : Постоянный
Частота кадров : 23,976 (24000/1001) кадра/сек
Цветовое пространство : YUV
Субдискретизация насыщенности : 4:2:0
Битовая глубина : 8 бит
Тип развёртки : Прогрессивная
Бит/(Пиксели*Кадры) : 0.256
Размер потока : 2,06 Гбайт (58%)
Библиотека кодирования : x264 core 157 r2935 545de2f
Настройки программы : cabac=1 / ref=9 / deblock=1:-2:-2 / analyse=0x3:0x113 / me=umh / subme=11 / psy=1 / psy_rd=1.00:0.15 / mixed_ref=1 / me_range=32 / chroma_me=1 / trellis=2 / 8x8dct=1 / cqm=0 / deadzone=21,11 / fast_pskip=0 / chroma_qp_offset=-3 / threads=6 / lookahead_threads=1 / sliced_threads=0 / nr=0 / decimate=1 / interlaced=0 / bluray_compat=0 / constrained_intra=0 / bframes=11 / b_pyramid=2 / b_adapt=2 / b_bias=0 / direct=1 / weightb=1 / open_gop=0 / weightp=2 / keyint=230 / keyint_min=23 / scenecut=40 / intra_refresh=0 / rc_lookahead=40 / rc=crf / mbtree=1 / crf=15.0 / qcomp=0.60 / qpmin=0 / qpmax=69 / qpstep=4 / vbv_maxrate=50000 / vbv_bufsize=62500 / crf_max=0.0 / nal_hrd=none / filler=0 / ip_ratio=1.40 / aq=1:1.00
Язык : Hebrew
Default : Да
Forced : Нет

Аудио #1
Идентификатор : 2
Формат : AC-3
Формат/Информация : Audio Coding 3
Коммерческое название : Dolby Digital
Идентификатор кодека : A_AC3
Продолжительность : 1 ч. 49 м.
Вид битрейта : Постоянный
Битрейт : 448 Кбит/сек
Каналы : 6 каналов
ChannelLayout : L R C LFE Ls Rs
Частота : 48,0 КГц
Частота кадров : 31,250 кадров/сек (1536 SPF)
Метод сжатия : С потерями
Размер потока : 352 Мбайт (10%)
Заголовок : MVO Лицензия
Язык : Russian
ServiceKind/String : Complete Main
Default : Да
Forced : Нет

Аудио #2
Идентификатор : 3
Формат : AC-3
Формат/Информация : Audio Coding 3
Коммерческое название : Dolby Digital
Идентификатор кодека : A_AC3
Продолжительность : 1 ч. 49 м.
Вид битрейта : Постоянный
Битрейт : 448 Кбит/сек
Каналы : 6 каналов
ChannelLayout : L R C LFE Ls Rs
Частота : 48,0 КГц
Частота кадров : 31,250 кадров/сек (1536 SPF)
Метод сжатия : С потерями
Размер потока : 352 Мбайт (10%)
Заголовок : Юрий Немахов
Язык : Russian
ServiceKind/String : Complete Main
Default : Нет
Forced : Нет

Аудио #3
Идентификатор : 4
Формат : AC-3
Формат/Информация : Audio Coding 3
Коммерческое название : Dolby Digital
Идентификатор кодека : A_AC3
Продолжительность : 1 ч. 49 м.
Вид битрейта : Постоянный
Битрейт : 448 Кбит/сек
Каналы : 6 каналов
ChannelLayout : L R C LFE Ls Rs
Частота : 48,0 КГц
Частота кадров : 31,250 кадров/сек (1536 SPF)
Метод сжатия : С потерями
Размер потока : 352 Мбайт (10%)
Заголовок : Andi
Язык : Russian
ServiceKind/String : Complete Main
Default : Нет
Forced : Нет

Аудио #4
Идентификатор : 5
Формат : AC-3
Формат/Информация : Audio Coding 3
Коммерческое название : Dolby Digital
Идентификатор кодека : A_AC3
Продолжительность : 1 ч. 49 м.
Вид битрейта : Постоянный
Битрейт : 192 Кбит/сек
Каналы : 2 канала
ChannelLayout : L R
Частота : 48,0 КГц
Частота кадров : 31,250 кадров/сек (1536 SPF)
Метод сжатия : С потерями
Размер потока : 151 Мбайт (4%)
Заголовок : Хихидок
Язык : Russian
ServiceKind/String : Complete Main
Default : Нет
Forced : Нет

Аудио #5
Идентификатор : 6
Формат : AC-3
Формат/Информация : Audio Coding 3
Коммерческое название : Dolby Digital
Идентификатор кодека : A_AC3
Продолжительность : 1 ч. 49 м.
Вид битрейта : Постоянный
Битрейт : 448 Кбит/сек
Каналы : 6 каналов
ChannelLayout : L R C LFE Ls Rs
Частота : 48,0 КГц
Частота кадров : 31,250 кадров/сек (1536 SPF)
Метод сжатия : С потерями
Размер потока : 352 Мбайт (10%)
Заголовок : original
Язык : Hebrew
ServiceKind/String : Complete Main
Default : Нет
Forced : Нет

Текст
Идентификатор : 7
Формат : UTF-8
Идентификатор кодека : S_TEXT/UTF8
Идентификатор кодека/Информация : UTF-8 Plain Text
Продолжительность : 1 ч. 41 м.
Битрейт : 49 бит/сек
ElementCount : 1259
Размер потока : 37,2 Кбайт (0%)
Заголовок : английские
Язык : English
Default : Нет
Forced : Нет

Меню
00:00:00.000 : :Chapter 1
00:07:02.464 : :Chapter 2
00:15:34.016 : :Chapter 3
00:23:52.056 : :Chapter 4
00:32:09.886 : :Chapter 5
00:42:29.464 : :Chapter 6
00:51:50.232 : :Chapter 7
01:01:32.272 : :Chapter 8
01:08:44.829 : :Chapter 9
01:20:57.644 : :Chapter 10
01:33:44.035 : :Chapter 11
01:45:31.158 : :Chapter 12
pibit.top



Скачать Очень плохие парни через торрент https://d.radikal.ru/d25/1911/ea/34107489b54d.jpg Скачать фильм Очень плохие парни через торрент бесплантно в хорошем качестве О фильме: Серия жестоких убийств связала в тугой узел судьбы трех людей: отца жертвы, полицейского и главного подозреваемого. Отец жаждет ... 10 10 6
Торрент: Зарегистрирован [2019-11-21 08:26] · скачан: 91 раз
Статус: √ проверено
Размер: 3.58 GB
Как cкачать? Как скачать Очень плохие парни через торрент | qTorrent

% Раздел Тема Автор DL S | L
Фильмы [HD 720p, 1080p] (Хороший звук DUB, MVO) [ 14.13 GB ] Очень плохие парни / Big Bad Wolves [2013 BDRip 1080p by msltel] MVO AVO 2 x VO msltel Скачать
1 | 0
Фильмы [HD 720p, 1080p] (Хороший звук DUB, MVO) [ 5.17 GB ] Очень плохие парни / Big Bad Wolves [2013 BDRip 720p by msltel] MVO AVO 2 x VO msltel Скачать
2 | 0

28-11-2019 20:33  

Отключить всю рекламу на сайте

21-11-2019 08:42 Очень плохие парни Скачать торрент  

постер-большие..плохие..вульвы.. pibit.top



    Дорогой пользователь! Огромная просьба, поблагодарите релизера, оцените раздачу и оставьте свои комментарий, если Вы скачали Очень плохие парни через торрент бесплатно! Внесите свою лепту в развитие PiratBit!
    Комментировать посты могут только пользователи прошедшие не сложную регистрацию
    Показать сообщения:    

    Очень плохие парни через торрент
    Скачать бесплатно Очень плохие парни
    Очень плохие парни скачать торрент
    Очень плохие парни смотреть онлайн
    Cкачать фильм Очень плохие парни бесплатно
    Очень плохие парни скачать торрент в хорошем качестве
    Очень плохие парни смотреть онлайн бесплатно в хорошем качестве


    Вы не можете начинать темы
    Вы не можете отвечать на сообщения
    Вы не можете редактировать свои сообщения
    Вы не можете удалять свои сообщения
    Вы не можете голосовать в опросах
    Вы не можете прикреплять файлы к сообщениям
    Вы можете скачивать файлы