новый адрес
Мега распродажа FORZA HORIZON 4 ULTIMATE+ВСЕ DLC+ОНЛАЙН всего за 499р. 349 руб. (супер цена). Внимание количество ограничено!!!

iTunes

1+1

iTunes

мы

iTunes

1

iTunes

Чернобыль

iTunes

Ральф против интернета

Лицензия

ПШазам

Лицензия

Игра престолов

Лицензия

30
pack

ВАЖНО

!!Акция!!

Alien_RageХит недели

RePack

Resident Evil 21

ИГРА 18+

pack

RePack

Metro:Exodus

!!Акция!!

Alien_Rage

RePack

fifa19

RePack

Assassins Creed: Odyssey

RePack

NEED FOR SPEED™ PAYBACK

3 сезон

9 сезон

Бесстыжие 9 сезон

Все сериалы

все сериалы на PB.wtf

RePack

FAR CRY 5
Ребята, катастрофически не хватает 1900р. для оплаты серверов за Октябрь (всвязи с блокировками трафик упал в 3 раза), 1-2р., выручайте.
  

Яна 3D - Дилдо 3D / Yana 3D - Dildo 3D. [Подсайт и сайт: pornfilms3d] [2010 г., Solo, Dildo, Teens, 3D., HDTV, Оригинал] Half SideBySide / Горизонтальная анаморфная стереопара pibit.top

Яна 3D - Дилдо 3D через торрент pibit.top

Размер: 1.05 GB | Добавлен: 6 лет 6 мес. назад | Торрент скачан:1249 раз
Скачать  

28-04-2013 03:15 Яна 3D - Дилдо 3D Скачать торрент  

Яна 3D - Дилдо 3D. / Yana 3D - Dildo 3D.
Год выпуска: 2010
Страна: USA.
Жанр: Solo, Dildo, Teens, 3D.,
Продолжительность: 00:16:30.
Перевод: Оригинал.

Подсайт и сайт: pornfilms3d.com

В ролях: Yana.

Описание: Яна любит пошалить с дилдо.

Тип HD видео: 1080p
Формат 3D: Half SideBySide / Горизонтальная анаморфная стереопара
Формат видео: MP4
Видео кодек: AVC
Аудио кодек: AAC
Видео: MPEG4 Video (H264) / 1920x1080p / 25.000 fps / 9000 kbps
Аудио: AAC (LC) / 48 kHz / stereo / 128 kbps
Общее
Полное имя : D:DownloadAdult contentDildo 3D 2010 HDRip halfSbS 1080p (IgorekSh).mp4
Формат : MPEG-4
Профиль формата : JVT
Идентификатор кодека : avc1
Размер файла : 1,05 Гбайт
Продолжительность : 16 м.
Режим общего битрейта : Постоянный
Общий поток : 9140 Кбит/сек
Дата кодирования : UTC 2013-01-23 11:33:29
Дата пометки : UTC 2013-01-23 11:33:29
Видео
Идентификатор : 1
Формат : AVC
Формат/Информация : Advanced Video Codec
Профиль формата : [email protected]
Параметр CABAC формата : Да
Параметр ReFrames формата : 2 кадра
Идентификатор кодека : avc1
Идентификатор кодека/Информация : Advanced Video Coding
Продолжительность : 16 м.
Вид битрейта : Постоянный
Битрейт : 9000 Кбит/сек
Ширина : 1920 пикселей
Высота : 1080 пикселей
Соотношение сторон : 16:9
Режим частоты кадров : Постоянный
Частота кадров : 25,000 кадров/сек
Цветовое пространство : YUV
Субдискретизация насыщенности : 4:2:0
Битовая глубина : 8 бит
Тип развёртки : Прогрессивная
Бит/(Пиксели*Кадры) : 0.174
Размер потока : 1,04 Гбайт (98%)
Язык : English
Дата кодирования : UTC 2013-01-23 11:33:29
Дата пометки : UTC 2013-01-23 11:33:29
Аудио
Идентификатор : 2
Формат : AAC
Формат/Информация : Advanced Audio Codec
Профиль формата : LC
Идентификатор кодека : 40
Продолжительность : 16 м.
Вид битрейта : Постоянный
Битрейт : 128 Кбит/сек
Каналы : 2 канала
Расположение каналов : Front: L R
Частота : 48,0 КГц
Метод сжатия : С потерями
Задержка видео : 40 мс.
Размер потока : 15,1 Мбайт (1%)
Язык : English
pibit.top



pack Скачать Яна 3D - Дилдо 3D через торрент http://i46.fastpic.ru/big/2013/0428/16/6db76cec6604d399bb5a65724ccf4e16.jpg Скачать фильм Яна 3D - Дилдо 3D через торрент бесплантно в хорошем качестве Описание: Яна любит пошалить с дилдо.Тип HD видео: 1080pФормат 3D: Half SideBySide / Горизонтальная анаморфная стереопараФормат видео: ... 9 10 28
Info! Золотая раздача, скачанное не засчитывается.
Торрент: Зарегистрирован [2013-04-28 03:15] · скачан: 1 249 раз
Статус: √ проверено
Размер: 1.05 GB
Как cкачать? Как скачать Яна 3D - Дилдо 3D через торрент | qTorrent


>> Регистрируемся здесь <<






Отзывы и комментарии о схеме читаем и пишем здесь: ---> Отзывы и комментарии о схеме

Новые благодарочки в телеграм довольных пользователей:
скриншот   скриншот   скриншот   скриншот   скриншот

10-07-2014 20:55 Яна 3D - Дилдо 3D Скачать торрент  

не качайте эту дрянь-она не удаляется и т.д.хотя каспером проверялpibit.top



pack
    Дорогой пользователь! Огромная просьба, поблагодарите релизера, оцените раздачу и оставьте свои комментарий, если Вы скачали Яна 3D - Дилдо 3D через торрент бесплатно! Внесите свою лепту в развитие PiratBit!
    Комментировать посты могут только пользователи прошедшие не сложную регистрацию
    Показать сообщения:    

    Яна 3D - Дилдо 3D через торрент
    Скачать бесплатно Яна 3D - Дилдо 3D
    Яна 3D - Дилдо 3D скачать торрент
    Яна 3D - Дилдо 3D смотреть онлайн
    Cкачать фильм Яна 3D - Дилдо 3D бесплатно
    Яна 3D - Дилдо 3D скачать торрент в хорошем качестве
    Яна 3D - Дилдо 3D смотреть онлайн бесплатно в хорошем качестве


    Вы не можете начинать темы
    Вы не можете отвечать на сообщения
    Вы не можете редактировать свои сообщения
    Вы не можете удалять свои сообщения
    Вы не можете голосовать в опросах
    Вы не можете прикреплять файлы к сообщениям
    Вы можете скачивать файлы