новый адрес
Ссылка на приватное зеркало всего за 1$. Внимание количество ограничено!!!

iTunes

1+1

iTunes

мы

WEB-DL

1

iTunes

Чернобыль

iTunes

Ральф против интернета

Лицензия

ПШазам

Лицензия

Оно 2

Лицензия

30
pack

Вам бонус

ВАЖНО

!!Акция!!

Alien_RageХит недели

RePack

Resident Evil 21

ИГРА 18+

pack

RePack

jed

!!Акция!!

Alien_Rage

RePack

fifa19

RePack

Assassins Creed: Odyssey

RePack

NEED FOR SPEED™ PAYBACK

3 сезон

9 сезон

Бесстыжие 9 сезон

Все сериалы

все сериалы на PB.wtf

RePack

FAR CRY 5
Ребята, катастрофически не хватает 1900р. для оплаты серверов за Октябрь (всвязи с блокировками трафик упал в 3 раза), 1-2р., выручайте.
  

Коллайдер / Collider (Джастин Льюис) [2018, фантастика, боевик, WEB-DLRip] Любительский [многоголосый] "Синема УС" pibit.top

Коллайдер через торрент pibit.top

Размер: 1.37 GB | Добавлен: 1 год 4 мес. назад | Торрент скачан:96 раз
Скачать  

12-08-2018 12:43 Коллайдер Скачать торрент  

Коллайдер / Collider


Год выпуска: 2018
Страна: США
Жанр: фантастика, боевик
Продолжительность: 01:28:06
Перевод: Любительский [многоголосый] "Синема УС"
Режиссер: Джастин Льюис
В ролях:

Кристин Масколо (Maya), Джуд Моран (Barry), Michael Vasicek (John), Коннер Гринхалг (Tyler), Elena Rose Davis (Angelica), Хит С. Хейн (Leo), Matt Meibauer (Conner), Дуайт Брасвелл (Roger), Jaclyn Gest (Emma), Alex Campbell (Dylan), Michael Gonzales (Danny), Taylor Poyfair (Emily)
Описание:
2033 год. Молодая девушка находится в таинственном приюте. Решив бросить вызов судьбе она отправляется в прошлое, чтобы найти своих родителей и изменить исход событий.
Доп. информация: Присутствует реклама.
Качество: WEB-DLRip
Формат: AVI
Видео кодек: XviD
Аудио кодек: AC3
Видео: XviD, 720x304 (2.35:1), 1827 kbps, 23,976 fps, 0,348 bpp
Аудио: AC3 / 2.0 / 48 kHz / 384 kbps /
Сэмпл
General
Complete name : Z:\Torrents\Collider.2018.P.WEB-DLRip.14OOMB_KOSHARA.avi
Format : AVI
Format/Info : Audio Video Interleave
File size : 1.37 GiB
Duration : 1 h 28 min
Overall bit rate : 2 221 kb/s
Writing application : VirtualDubMod 1.5.10.2 (build 2540/release)
Writing library : VirtualDubMod build 2540/release

Video
ID : 0
Format : MPEG-4 Visual
Format profile : Advanced [email protected]
Format settings, BVOP : 2
Format settings, QPel : No
Format settings, GMC : No warppoints
Format settings, Matrix : Custom
Codec ID : XVID
Codec ID/Hint : XviD
Duration : 1 h 28 min
Bit rate : 1 828 kb/s
Width : 720 pixels
Height : 304 pixels
Display aspect ratio : 2.35:1
Frame rate : 23.976 (24000/1001) FPS
Color space : YUV
Chroma subsampling : 4:2:0
Bit depth : 8 bits
Scan type : Progressive
Compression mode : Lossy
Bits/(Pixel*Frame) : 0.348
Stream size : 1.12 GiB (82%)
Writing library : XviD 1.2.1 (UTC 2008-12-04)

Audio
ID : 1
Format : AC-3
Format/Info : Audio Coding 3
Mode extension : CM (complete main)
Format settings, Endianness : Big
Codec ID : 2000
Duration : 1 h 28 min
Bit rate mode : Constant
Bit rate : 384 kb/s
Channel(s) : 2 channels
Channel positions : Front: L R
Sampling rate : 48.0 kHz
Frame rate : 31.250 FPS (1536 spf)
Compression mode : Lossy
Stream size : 242 MiB (17%)
Alignment : Split accross interleaves
Interleave, duration : 42 ms (1.00 video frame)
Interleave, preload duration : 500 ms
pibit.top



Скачать Коллайдер через торрент http://i102.fastpic.ru/big/2018/0812/b4/9075b18638d4315c783c87b1c94be5b4.jpg Скачать фильм Коллайдер через торрент бесплантно в хорошем качестве Описание: 2033 год. Молодая девушка находится в таинственном приюте. Решив бросить вызов судьбе она отправляется в прошлое, чтобы найти ... 10 10 1
Торрент: Зарегистрирован [2018-08-12 12:43] · скачан: 96 раз
Статус: T временная
Размер: 1.37 GB
Как cкачать? Как скачать Коллайдер через торрент | qTorrent



Последний раз редактировалось: Kuzich (2018-08-12 17:43), всего редактировалось 1 раз

28-11-2019 20:33  

Отключить всю рекламу на сайте

12-08-2018 18:23 Коллайдер Скачать торрент  

02-12-2019 18:36 Коллайдер Скачать торрент  

Топик был перенесен из форума Фильмы (мультфильмы) cо спонсором показа (Новинки AVI/MKV) в форум Для поглощённых раздач

Причина переноса: Коллайдер / Collider
bober100pibit.top



    Дорогой пользователь! Огромная просьба, поблагодарите релизера, оцените раздачу и оставьте свои комментарий, если Вы скачали Коллайдер через торрент бесплатно! Внесите свою лепту в развитие PiratBit!
    Комментировать посты могут только пользователи прошедшие не сложную регистрацию
    Показать сообщения:    

    Коллайдер через торрент
    Скачать бесплатно Коллайдер
    Коллайдер скачать торрент
    Коллайдер смотреть онлайн
    Cкачать фильм Коллайдер бесплатно
    Коллайдер скачать торрент в хорошем качестве
    Коллайдер смотреть онлайн бесплатно в хорошем качестве


    Вы не можете начинать темы
    Вы не можете отвечать на сообщения
    Вы не можете редактировать свои сообщения
    Вы не можете удалять свои сообщения
    Вы не можете голосовать в опросах
    Вы не можете прикреплять файлы к сообщениям
    Вы можете скачивать файлы