MEGA NEWS Получи личный уникальный адрес сайта и защити себя от блокировок. Внимание количество ограничено!!!

iTunes

1+1

iTunes

мы

iTunes

1

iTunes

Чернобыль

iTunes

Ральф против интернета

Лицензия

ПШазам

Лицензия

Игра престолов

Лицензия

30
pack

ВАЖНО

!!Акция!!

Alien_RageХит недели

RePack

Resident Evil 21

ИГРА 18+

pack

RePack

Metro:Exodus

!!Акция!!

Alien_Rage

RePack

fifa19

RePack

Assassins Creed: Odyssey

RePack

NEED FOR SPEED™ PAYBACK

3 сезон

9 сезон

Бесстыжие 9 сезон

Все сериалы

все сериалы на PB.wtf

RePack

FAR CRY 5
Ребята, катастрофически не хватает 1900р. для оплаты серверов за АВГУСТ (всвязи с блокировками трафик упал в 3 раза), 1-2р., выручайте.
  

Норм и Несокрушимые: Большое путешествие / Norm of the North: King Sized Adventure (Ричард Финн, Тим Молтби) [2019, мультфильм, комедия, приключения, семейный, WEB-DL 1080p] DUB [iTunes] pibit.top

Норм и Несокрушимые: Большое путешествие через торрент pibit.top

Раздают: 9 [ 190 KB/s ]
Размер: 3.46 GB | Добавлен: 2 мес. 13 д. назад | Торрент скачан:262 раза
Скачать  

16-06-2019 06:00 Норм и Несокрушимые: Большое путешествие Скачать торрент  

Норм и Несокрушимые: Большое путешествие / Norm of the North: King Sized Adventure
Год выпуска: 2019
Страна: США, Индия, Корея Южная, Китай
Жанр: мультфильм, комедия, приключения, семейный
Продолжительность: 01:30:00
Перевод: Дублированный | iTunes
Субтитры: отсутствуют

Режиссер: Ричард Финн, Тим Молтби

rating

В ролях: Лиза Дурупт, Винсент Тонг, Джонатан Холмс, Ли Токар, Майкл Добсон, Брайан Добсон, Эндрю То, Коул Ховард, Алан Марриотт, Дженнифер Камерон

Описание: В ледяных горах Арктики терпит крушение самолет, управляемый археологом Джином. Аварию подстроил его коварный напарник, который похищает бесценную нефритовую статуэтку китайского божества - ключ к несметным сокровищам. На помощь Джину приходит король Арктики Норм. В компании с леммингами он отправляется в смертельно опасное путешествие. На этот раз обаятельный и простодушный мишка должен не только обезвредить злодея и вернуть бесценную реликвию, но и успеть на свадьбу своего эксцентричного дедушки...

Качество: WEB-DL 1080p
Формат: MKV

Видео: MPEG-4 AVC, 1920x1080, 5113 Kbit/s, 23.976 fps
Аудио: 48 kHz, AC3, 5.1, 384 Kbps | iTunes | RUS |
скриншот  скриншот  скриншот  скриншот  скриншот  

General
Unique ID : 159845555932640498694971147484255997076 (0x7841225F2D60D08B18C1D10A93EFCC94)
Complete name : D:Video111Norm.of.the.North.King.Sized.Adventure.2019.WEB-DL.1080p.seleZen.mkv
Format : Matroska
Format version : Version 4
File size : 3.46 GiB
Duration : 1 h 30 min
Overall bit rate : 5 498 kb/s
Encoded date : UTC 2019-08-07 07:01:30
Writing application : mkvmerge v22.0.0 ('At The End Of The World') 64-bit
Writing library : libebml v1.3.5 + libmatroska v1.4.8

Video
ID : 1
Format : AVC
Format/Info : Advanced Video Codec
Format profile : [email protected]
Format settings : CABAC / 4 Ref Frames
Format settings, CABAC : Yes
Format settings, Reference : 4 frames
Codec ID : V_MPEG4/ISO/AVC
Duration : 1 h 30 min
Bit rate : 5 113 kb/s
Width : 1 920 pixels
Height : 1 080 pixels
Display aspect ratio : 16:9
Frame rate mode : Constant
Frame rate : 24.000 FPS
Color space : YUV
Chroma subsampling : 4:2:0
Bit depth : 8 bits
Scan type : Progressive
Bits/(Pixel*Frame) : 0.103
Stream size : 3.21 GiB (93%)
Language : English
Default : Yes
Forced : No
Color range : Limited
Color primaries : BT.709
Transfer characteristics : BT.709
Matrix coefficients : BT.709

Audio
ID : 2
Format : AC-3
Format/Info : Audio Coding 3
Commercial name : Dolby Digital
Codec ID : A_AC3
Duration : 1 h 30 min
Bit rate mode : Constant
Bit rate : 384 kb/s
Channel(s) : 6 channels
Channel layout : L R C LFE Ls Rs
Sampling rate : 48.0 kHz
Frame rate : 31.250 FPS (1536 SPF)
Bit depth : 16 bits
Compression mode : Lossy
Stream size : 247 MiB (7%)
Title : iTunes
Language : Russian
Service kind : Complete Main
Default : Yes
Forced : Yes

Menu
00:00:00.000 : en:Глава 1
00:09:09.291 : en:Глава 2
00:16:38.332 : en:Глава 3
00:25:32.040 : en:Глава 4
00:33:25.915 : en:Глава 5
00:41:32.748 : en:Глава 6
00:50:52.414 : en:Глава 7
00:57:50.789 : en:Глава 8
01:05:48.289 : en:Глава 9
01:14:43.122 : en:Глава 10
01:22:35.455 : en:Глава 11

pibit.top



Скачать Норм и Несокрушимые: Большое путешествие через торрент https://img16.lostpic.net/2019/08/07/4a0ce9dec7e0aee66b3ef6355f49f7fe.jpg Скачать фильм Норм и Несокрушимые: Большое путешествие через торрент бесплантно в хорошем качестве Описание: В ледяных горах Арктики терпит крушение самолет, управляемый археологом Джином. Аварию подстроил его коварный напарник, который ... 9.9 10 9
Торрент: Зарегистрирован [2019-08-07 07:09] · скачан: 262 раз
Статус: √ проверено
Размер: 3.46 GB
Как cкачать? Как скачать Норм и Несокрушимые: Большое путешествие через торрент | qTorrent

% Раздел Тема Автор DL S | L
Иностранные мультфильмы [ 1.37 GB ] Норм и Несокрушимые: Большое путешествие / Norm of the North: King Sized Adventure [2019 мультфильм WEB-DLRip] bober100 Скачать
7 | 0


>> Регистрируемся здесь <<






Отзывы и комментарии о схеме читаем и пишем здесь: ---> Отзывы и комментарии о схеме

Новые благодарочки в телеграм довольных пользователей:
скриншот   скриншот   скриншот   скриншот   скриншот
    Дорогой пользователь! Огромная просьба, поблагодарите релизера, оцените раздачу и оставьте свои комментарий, если Вы скачали Норм и Несокрушимые: Большое путешествие через торрент бесплатно! Внесите свою лепту в развитие PiratBit!
    Комментировать посты могут только пользователи прошедшие не сложную регистрацию
    Показать сообщения:    

    Норм и Несокрушимые: Большое путешествие через торрент
    Скачать бесплатно Норм и Несокрушимые: Большое путешествие
    Норм и Несокрушимые: Большое путешествие скачать торрент
    Норм и Несокрушимые: Большое путешествие смотреть онлайн
    Cкачать фильм Норм и Несокрушимые: Большое путешествие бесплатно
    Норм и Несокрушимые: Большое путешествие скачать торрент в хорошем качестве
    Норм и Несокрушимые: Большое путешествие смотреть онлайн бесплатно в хорошем качестве


    Вы не можете начинать темы
    Вы не можете отвечать на сообщения
    Вы не можете редактировать свои сообщения
    Вы не можете удалять свои сообщения
    Вы не можете голосовать в опросах
    Вы не можете прикреплять файлы к сообщениям
    Вы можете скачивать файлы