MEGA NEWS Получи личный уникальный адрес сайта и защити себя от блокировок. Внимание количество ограничено!!!

iTunes

1+1

iTunes

мы

iTunes

1

iTunes

Чернобыль

iTunes

Ральф против интернета

Лицензия

ПШазам

Лицензия

Игра престолов

Лицензия

30
pack

ВАЖНО

!!Акция!!

Alien_RageХит недели

RePack

Resident Evil 21

ИГРА 18+

pack

RePack

Metro:Exodus

!!Акция!!

Alien_Rage

RePack

fifa19

RePack

Assassins Creed: Odyssey

RePack

NEED FOR SPEED™ PAYBACK

3 сезон

9 сезон

Бесстыжие 9 сезон

Все сериалы

все сериалы на PB.wtf

RePack

FAR CRY 5
Ребята, катастрофически не хватает 1900р. для оплаты серверов за АВГУСТ (всвязи с блокировками трафик упал в 3 раза), 1-2р., выручайте.
  

Девушка с плеером / The Hidden Track (Брайан Лай) [2019, Драма, WEB-DL 720p] DUB [Line] pibit.top

Девушка с плеером через торрент pibit.top

Раздают: 3 [ 13 KB/s ]
Размер: 2.54 GB | Добавлен: 12 д. назад | Торрент скачан:29 раз
Скачать  

22-09-2019 16:06 Девушка с плеером Скачать торрент  

Девушка с плеером / The Hidden Track
Год выпуска: 2019
Страна: Россия, Великобритания
Жанр: Драма
Продолжительность: 01:38:38
Перевод: Дублированный | Line
Субтитры: отсутствуют

Режиссер: Брайан Лай

rating


В ролях: Екатерина Шмакова, Алан Эмрис Приле, Тим Айткен-Смит, Джек Парр, Люк Хобсон, Дуги Вуд, Остин Кэйли, Кэтлин Худ, Алекс Рейнольдс, Настя Зиновьева

Описание: Русская девушка Ника приезжает в Лондон, где несколько лет назад бесследно исчезла ее сестра Джен. Разместив на страничке в соцсети сообщение адресованное пропавшей сестре, Ника получает смс от неизвестного абонента. Это смс даёт ей подсказку, благодаря которой героиня берётся за собственное расследование. И начинает его в месте, где сегодня ищут и находят все и всех — в интернете, в социальных сетях. Новые зацепки приводят девушку в небольшой городок на окраине Лондона, где жила и работала сестра. Оказывается, она была девушкой солиста местной рок-группы, которая стала популярной сразу после исчезновения Джен. Рассказы лучших подруг сестры не совпадают в деталях, подробности жизни Джен кажутся странными, а рок-музыканты вызывают подозрения. Не расставаясь с любимым плеером, Ника ввязывается в игру, которая может стоить ей жизни, не подозревая, что ответы на вопросы можно найти именно в плеере.

Качество: WEB-DL 720p
Формат: MKV

Видео: MPEG-4 AVC, ~ 3500 Кбит/с, 1280x532
Аудио: 48 kHz, AC3, 2 ch, 192 kbps avg
скриншот  скриншот  скриншот  скриншот  

Общее
Уникальный идентификатор : 199917171863025527084779246234838577069 (0x9666A592A4365D48864A19DC354D2FAD)
Полное имя : D:\The.Hidden.Track.2019.WEB-DL.(720p).ExKinoRay.mkv
Формат : Matroska
Версия формата : Version 2
Размер файла : 2,54 Гбайт
Продолжительность : 1 ч. 38 м.
Общий поток : 3691 Кбит/сек
Дата кодирования : UTC 2019-10-05 23:40:36
Программа кодирования : mkvmerge v5.8.0 ('No Sleep / Pillow') built on Sep 2 2012 15:37:04
Библиотека кодирования : libebml v1.2.3 + libmatroska v1.3.0

Видео
Идентификатор : 1
Формат : AVC
Формат/Информация : Advanced Video Codec
Профиль формата : [email protected]
Параметр CABAC формата : Да
Параметр RefFrames формата : 9 кадров
Идентификатор кодека : V_MPEG4/ISO/AVC
Продолжительность : 1 ч. 38 м.
Битрейт : 3500 Кбит/сек
Ширина : 1280 пикселей
Высота : 532 пикселя
Соотношение сторон : 2,40:1
Режим частоты кадров : Постоянный
Частота кадров : 23,976 (24000/1001) кадра/сек
Цветовое пространство : YUV
Субдискретизация насыщенности : 4:2:0
Битовая глубина : 8 бит
Тип развёртки : Прогрессивная
Бит/(Пиксели*Кадры) : 0.210
Размер потока : 2,36 Гбайт (93%)
Язык : Russian
Default : Да
Forced : Нет
Цветовой диапазон : Limited
Основные цвета : BT.709
Характеристики трансфера : BT.709
Коэффициенты матрицы : BT.709

Аудио
Идентификатор : 2
Формат : AC-3
Формат/Информация : Audio Coding 3
Расширение режима : CM (complete main)
Параметр Endianness формата : Big
Идентификатор кодека : A_AC3
Продолжительность : 1 ч. 38 м.
Вид битрейта : Постоянный
Битрейт : 192 Кбит/сек
Каналы : 2 канала
Расположение каналов : Front: L R
Частота : 48,0 КГц
Частота кадров : 31,250 кадров/сек (1536 spf)
Метод сжатия : С потерями
Размер потока : 135 Мбайт (5%)
Язык : Russian
Default : Да
Forced : Нет

pibit.top



Скачать Девушка с плеером через торрент https://d.radikal.ru/d17/1909/0f/761246f391c3.jpg Скачать фильм Девушка с плеером через торрент бесплантно в хорошем качестве Описание: Русская девушка Ника приезжает в Лондон, где несколько лет назад бесследно исчезла ее сестра Джен. Разместив на страничке в ... 10 10 4
Торрент: Зарегистрирован [2019-10-06 13:38] · скачан: 29 раз
Статус: T временная
Размер: 2.54 GB
Как cкачать? Как скачать Девушка с плеером через торрент | qTorrent

% Раздел Тема Автор DL S | L
T Фильмы (WEB-DL 720p, 1080p) [ 4.27 GB ] Девушка с плеером / The Hidden Track [2019 WEB-DL 1080p] DUB [Line] bober100 Скачать
7 | 1
T Фильмы 2019 [DVDrip, WEB-DLRip, HDrip] (DUB, MVO) [ 1.85 GB ] Девушка с плеером / The Hidden Track [2019 WEB-DLRip-AVC] DUB [Line] bober100 Скачать
13 | 1
T Фильмы 2019 [DVDrip, WEB-DLRip, HDrip] (DUB, MVO) [ 1.37 GB ] Девушка с плеером / The Hidden Track [2019 WEB-DLRip] DUB [Line] bober100 Скачать
5 | 0


>> Регистрируемся здесь <<






Отзывы и комментарии о схеме читаем и пишем здесь: ---> Отзывы и комментарии о схеме

Новые благодарочки в телеграм довольных пользователей:
скриншот   скриншот   скриншот   скриншот   скриншот
    Дорогой пользователь! Огромная просьба, поблагодарите релизера, оцените раздачу и оставьте свои комментарий, если Вы скачали Девушка с плеером через торрент бесплатно! Внесите свою лепту в развитие PiratBit!
    Комментировать посты могут только пользователи прошедшие не сложную регистрацию
    Показать сообщения:    

    Девушка с плеером через торрент
    Скачать бесплатно Девушка с плеером
    Девушка с плеером скачать торрент
    Девушка с плеером смотреть онлайн
    Cкачать фильм Девушка с плеером бесплатно
    Девушка с плеером скачать торрент в хорошем качестве
    Девушка с плеером смотреть онлайн бесплатно в хорошем качестве


    Вы не можете начинать темы
    Вы не можете отвечать на сообщения
    Вы не можете редактировать свои сообщения
    Вы не можете удалять свои сообщения
    Вы не можете голосовать в опросах
    Вы не можете прикреплять файлы к сообщениям
    Вы можете скачивать файлы