MEGA NEWS Получи личный уникальный адрес сайта и защити себя от блокировок. Внимание количество ограничено!!!

iTunes

1+1

iTunes

мы

iTunes

1

iTunes

Чернобыль

iTunes

Ральф против интернета

Лицензия

ПШазам

Лицензия

Игра престолов

Лицензия

30
pack

ВАЖНО

!!Акция!!

Alien_RageХит недели

RePack

Resident Evil 21

ИГРА 18+

pack

RePack

Metro:Exodus

!!Акция!!

Alien_Rage

RePack

fifa19

RePack

Assassins Creed: Odyssey

RePack

NEED FOR SPEED™ PAYBACK

3 сезон

9 сезон

Бесстыжие 9 сезон

Все сериалы

все сериалы на PB.wtf

RePack

FAR CRY 5
Ребята, катастрофически не хватает 1900р. для оплаты серверов за АВГУСТ (всвязи с блокировками трафик упал в 3 раза), 1-2р., выручайте.
  

Гори, гори ясно / Brightburn (Дэвид Яровески) [2019, ужасы, фантастика, триллер, драма, BDRip 1080p] DUB (rus, ukr) [Лицензия] +MVO [СВ Студия] pibit.top

Гори, гори ясно через торрент pibit.top

Раздают: 1 [ 100 KB/s ]
Размер: 9.77 GB | Добавлен: 9 д. назад | Торрент скачан:39 раз
Скачать  

06-10-2019 19:32 Гори, гори ясно Скачать торрент  

Гори, гори ясно / Brightburn«Imagine What He Could Become»
Год выпуска: 2019
Страна: США
Жанр: ужасы, фантастика, триллер, драма
Продолжительность: 01:30:30
Перевод:

#1: Дублированный | Лицензия
#2: Профессиональный (многоголосый закадровый) | СВ Студия

Субтитры: Русские (Forced, full), украинские (Full), английские

Режиссер: Дэвид Яровески

rating

В ролях:

Элизабет Бэнкс (Tori Breyer), Дэвид Денман (Kyle Breyer), Джексон А. Данн (Brandon Breyer), Абрахам Клинкскейлз (Royce), Кристиан Финлейсон (Fauxhawk), Дженнифер Холлэнд (Ms. Espenschied), Эмми Хантер (Caitlyn), Мэтт Джонс (Noah McNichol), Мередит Хагнер (Merilee McNichol), Бекки Уолстром (Erica), Терренс Розмор (P.E. Teacher), Грегори Алан Уильямс (Sheriff Deever)
Описание: Что, если потерпевший крушение на Земле инопланетный ребенок со сверхспособностями вместо того, чтобы стать героем для человечества, окажется чем-то гораздо более зловещим?

Качество: BDRip 1080p
Формат: MKV

Видео: MPEG-4 AVC, 1920x804, 13.6 Mbit/s, 23.976 fps
Аудио#1: 48 kHz, AC3, 5.1, 640 Kbps | Лицензия | RUS |
Аудио#2: 48 kHz, AC3, 2.0, 192 Kbps | СВ Студия | RUS |
Аудио#3: 48 kHz, AC3, 5.1, 384 Kbps | iTunes | UKR |
Аудио#4: 48 kHz, AC3, 2.0, 640 Kbps | Оригинал | ENG |
скриншот  скриншот  скриншот  скриншот  скриншот  

General
Unique ID : 187509543550271937362414782028412332811 (0x8D11064433CC8F909143472CD0C3AB0B)
Complete name : D:Video111Brightburn.2019.Lic.BDRip.1080p.seleZen.mkv
Format : Matroska
Format version : Version 4
File size : 9.77 GiB
Duration : 1 h 30 min
Overall bit rate : 15.4 Mb/s
Movie name : Brightburn 2019 from селезень
Encoded date : UTC 2019-10-06 14:16:53
Writing application : mkvmerge v22.0.0 ('At The End Of The World') 64-bit
Writing library : libebml v1.3.5 + libmatroska v1.4.8

Video
ID : 1
Format : AVC
Format/Info : Advanced Video Codec
Format profile : [email protected]
Format settings : CABAC / 5 Ref Frames
Format settings, CABAC : Yes
Format settings, Reference : 5 frames
Codec ID : V_MPEG4/ISO/AVC
Duration : 1 h 30 min
Bit rate : 13.6 Mb/s
Width : 1 920 pixels
Height : 804 pixels
Display aspect ratio : 2.40:1
Frame rate mode : Constant
Frame rate : 23.976 (24000/1001) FPS
Color space : YUV
Chroma subsampling : 4:2:0
Bit depth : 8 bits
Scan type : Progressive
Bits/(Pixel*Frame) : 0.367
Stream size : 8.59 GiB (88%)
Title : playHD
Writing library : x264 core 157 r2867+103 0d6443f t_mod_Custom_2 [[email protected] X86_64]
Encoding settings : cabac=1 / ref=5 / deblock=1:-3:-3 / analyse=0x3:0x133 / me=umh / subme=10 / psy=1 / fade_compensate=0.00 / psy_rd=1.00:0.00 / mixed_ref=1 / me_range=32 / chroma_me=1 / trellis=2 / 8x8dct=1 / cqm=0 / deadzone=21,11 / fast_pskip=0 / chroma_qp_offset=-2 / threads=24 / lookahead_threads=4 / sliced_threads=0 / nr=0 / decimate=0 / interlaced=0 / bluray_compat=0 / constrained_intra=0 / fgo=0 / bframes=8 / b_pyramid=2 / b_adapt=2 / b_bias=0 / direct=3 / weightb=1 / open_gop=0 / weightp=2 / keyint=250 / keyint_min=23 / scenecut=40 / intra_refresh=0 / rc_lookahead=60 / rc=crf / mbtree=0 / crf=15.2000 / qcomp=0.60 / qpmin=0:0:0 / qpmax=69:69:69 / qpstep=4 / vbv_maxrate=62500 / vbv_bufsize=78125 / crf_max=0.0 / nal_hrd=none / filler=0 / ip_ratio=1.30 / pb_ratio=1.20 / aq=3:0.80 / aq-sensitivity=10.00 / aq-factor=1.00:1.00:1.00 / aq2=0 / aq3=0
Language : English
Default : Yes
Forced : No

Audio #1
ID : 2
Format : AC-3
Format/Info : Audio Coding 3
Commercial name : Dolby Digital
Codec ID : A_AC3
Duration : 1 h 30 min
Bit rate mode : Constant
Bit rate : 640 kb/s
Channel(s) : 6 channels
Channel layout : L R C LFE Ls Rs
Sampling rate : 48.0 kHz
Frame rate : 31.250 FPS (1536 SPF)
Bit depth : 16 bits
Compression mode : Lossy
Stream size : 414 MiB (4%)
Title : Dub [License]
Language : Russian
Service kind : Complete Main
Default : Yes
Forced : Yes

Audio #2
ID : 3
Format : AC-3
Format/Info : Audio Coding 3
Commercial name : Dolby Digital
Codec ID : A_AC3
Duration : 1 h 30 min
Bit rate mode : Constant
Bit rate : 192 kb/s
Channel(s) : 2 channels
Channel layout : L R
Sampling rate : 48.0 kHz
Frame rate : 31.250 FPS (1536 SPF)
Bit depth : 16 bits
Compression mode : Lossy
Stream size : 124 MiB (1%)
Title : MVO [СВ Студия]
Language : Russian
Service kind : Complete Main
Default : No
Forced : No

Audio #3
ID : 4
Format : AC-3
Format/Info : Audio Coding 3
Commercial name : Dolby Digital
Codec ID : A_AC3
Duration : 1 h 30 min
Bit rate mode : Constant
Bit rate : 384 kb/s
Channel(s) : 6 channels
Channel layout : L R C LFE Ls Rs
Sampling rate : 48.0 kHz
Frame rate : 31.250 FPS (1536 SPF)
Bit depth : 16 bits
Compression mode : Lossy
Stream size : 249 MiB (2%)
Title : Dub
Language : Ukrainian
Service kind : Complete Main
Default : No
Forced : No

Audio #4
ID : 5
Format : AC-3
Format/Info : Audio Coding 3
Commercial name : Dolby Digital
Codec ID : A_AC3
Duration : 1 h 30 min
Bit rate mode : Constant
Bit rate : 640 kb/s
Channel(s) : 6 channels
Channel layout : L R C LFE Ls Rs
Sampling rate : 48.0 kHz
Frame rate : 31.250 FPS (1536 SPF)
Bit depth : 16 bits
Compression mode : Lossy
Stream size : 414 MiB (4%)
Title : Original
Language : English
Service kind : Complete Main
Default : No
Forced : No

Text #1
ID : 6
Format : UTF-8
Codec ID : S_TEXT/UTF8
Codec ID/Info : UTF-8 Plain Text
Duration : 1 h 29 min
Bit rate : 0 b/s
Count of elements : 11
Stream size : 620 Bytes (0%)
Title : Forced
Language : Russian
Default : Yes
Forced : Yes

Text #2
ID : 7
Format : UTF-8
Codec ID : S_TEXT/UTF8
Codec ID/Info : UTF-8 Plain Text
Duration : 1 h 29 min
Bit rate : 61 b/s
Count of elements : 895
Stream size : 40.1 KiB (0%)
Title : Full
Language : Russian
Default : No
Forced : No

Text #3
ID : 8
Format : UTF-8
Codec ID : S_TEXT/UTF8
Codec ID/Info : UTF-8 Plain Text
Duration : 1 h 24 min
Bit rate : 61 b/s
Count of elements : 892
Stream size : 38.3 KiB (0%)
Title : Full
Language : Ukrainian
Default : No
Forced : No

Text #4
ID : 9
Format : UTF-8
Codec ID : S_TEXT/UTF8
Codec ID/Info : UTF-8 Plain Text
Duration : 1 h 27 min
Bit rate : 44 b/s
Count of elements : 1036
Stream size : 28.2 KiB (0%)
Title : Full
Language : English
Default : No
Forced : No

Menu
00:00:00.000 : en:00:00:00.000
00:03:20.700 : en:00:03:20.700
00:07:04.633 : en:00:07:04.633
00:12:30.792 : en:00:12:30.792
00:17:47.066 : en:00:17:47.066
00:24:23.170 : en:00:24:23.170
00:30:28.910 : en:00:30:28.910
00:38:06.784 : en:00:38:06.784
00:43:11.672 : en:00:43:11.672
00:49:25.796 : en:00:49:25.796
00:56:53.535 : en:00:56:53.535
01:00:12.359 : en:01:00:12.359
01:05:22.127 : en:01:05:22.127
01:08:16.092 : en:01:08:16.092
01:12:20.586 : en:01:12:20.586
01:17:28.894 : en:01:17:28.894

pibit.top



Скачать Гори, гори ясно через торрент http://img16.lostpic.net/2019/08/06/3c9236e801432ac4d01a2c7e169c9ef5.jpg Скачать фильм Гори, гори ясно через торрент бесплантно в хорошем качестве Описание: Что, если потерпевший крушение на Земле инопланетный ребенок со сверхспособностями вместо того, чтобы стать героем для ... 9.2 10 5
Торрент: Зарегистрирован [2019-10-06 19:32] · скачан: 39 раз
Статус: √ проверено
Размер: 9.77 GB
Как cкачать? Как скачать Гори, гори ясно через торрент | qTorrent

% Раздел Тема Автор DL S | L
Фильмы 2019 [DVDrip, WEB-DLRip, HDrip] (DUB, MVO) [ 1.46 GB ] Гори гори ясно / Brightburn [2019 BDRip] - [] Twi7ter Скачать
47 | 7
Фильмы [HD 720p, 1080p] (Хороший звук DUB, MVO) [ 4.34 GB ] Гори гори ясно / Brightburn [2019 BDRip 720p] DUB [] +MVO [СВ Студия] bober100 Скачать
4 | 0
Ultra HD (UHD: 2K, 4K, 8K) — видео сверхвысокой чёткости [ 40.17 GB ] Гори гори ясно / Brightburn [2019 UHD BDRemux 2160p] DUB [] + MVO [СВ Студия] sheker187 Скачать
1 | 0
Фильмы (WEB-DL 720p, 1080p) [ 3.33 GB ] Гори гори ясно / Brightburn [2019 WEB-DL 1080p] +MVO [СВ Студия] bober100 Скачать
44 | 0
Фильмы (WEB-DL 720p, 1080p) [ 2.22 GB ] Гори гори ясно / Brightburn [2019 WEB-DL 720p] bober100 Скачать
16 | 0
Ultra HD (UHD: 2K, 4K, 8K) — видео сверхвысокой чёткости [ 10.94 GB ] Гори гори ясно / Brightburn [2019 UHD BDRip 2160p] DUB [] +MVO [СВ Студия] bober100 Скачать
1 | 0
Фильмы 2019 [DVDrip, WEB-DLRip, HDrip] (DUB, MVO) [ 1.42 GB ] Гори гори ясно / Brightburn [2019 BDRip] bober100 Скачать
10 | 0


>> Регистрируемся здесь <<






Отзывы и комментарии о схеме читаем и пишем здесь: ---> Отзывы и комментарии о схеме

Новые благодарочки в телеграм довольных пользователей:
скриншот   скриншот   скриншот   скриншот   скриншот

07-10-2019 16:17 Гори, гори ясно Скачать торрент  

Отличная концовка... pibit.top



    Дорогой пользователь! Огромная просьба, поблагодарите релизера, оцените раздачу и оставьте свои комментарий, если Вы скачали Гори, гори ясно через торрент бесплатно! Внесите свою лепту в развитие PiratBit!
    Комментировать посты могут только пользователи прошедшие не сложную регистрацию
    Показать сообщения:    

    Гори, гори ясно через торрент
    Скачать бесплатно Гори, гори ясно
    Гори, гори ясно скачать торрент
    Гори, гори ясно смотреть онлайн
    Cкачать фильм Гори, гори ясно бесплатно
    Гори, гори ясно скачать торрент в хорошем качестве
    Гори, гори ясно смотреть онлайн бесплатно в хорошем качестве


    Вы не можете начинать темы
    Вы не можете отвечать на сообщения
    Вы не можете редактировать свои сообщения
    Вы не можете удалять свои сообщения
    Вы не можете голосовать в опросах
    Вы не можете прикреплять файлы к сообщениям
    Вы можете скачивать файлы