Ссылка на приватное зеркало всего за 1$. Внимание количество ограничено!!!

iTunes

1+1

iTunes

мы

MV0

1

WEB-DLRip

Джокер

Пифагор

Ведьмак / The Witcher сериал

iTunes

ПШазам

iTunes

Оно 2

iTunes

30
pack

Вам бонус

ВАЖНО

!!Акция!!

Alien_RageХит недели

RePack

Resident Evil 21

ИГРА 18+

pack

RePack

jed

!!Акция!!

Alien_Rage

RePack

fifa19

RePack

Assassins Creed: Odyssey

RePack

NEED FOR SPEED™ PAYBACK

4 сезон

9 сезон

Бесстыжие 9 сезон

Все сериалы

все сериалы на PB.wtf

RePack

FAR CRY 5
  

Бэтвумен / Batwoman / Сезон: 1 / Серии: 1-10 из 22 (Маркос Сига, Лаура Белси) [2019, фантастика, боевик, драма, криминал, приключения, HDTVRip] DVO [Kerob] pibit.top

Бэтвумен через торрент pibit.top

Размер: 4.04 GB | Добавлен: 1 мес. 7 д. назад | Торрент скачан:2 раза
Скачать  

07-10-2019 06:28 Бэтвумен Скачать торрент  

Бэтвумен / Batwoman
Год выпуска: 2019
Страна: США
Жанр: фантастика, боевик, драма, криминал, приключения
Продолжительность: ~ 00:44:00 серия
Перевод: Любительский (двухголосый) | Kerob
Субтитры: отсутствуют

Режиссер: Маркос Сига, Лаура Белси

rating

В ролях: Камрус Джонсон, Руби Роуз, Элизабет Энвейс, Рэйчел Скарстен, Дюгрей Скотт, Николь Кан, Сэм Литтлфилд, Брендон Заб, Мэттью В.Аллен, Акил Аш-Шакур и другие.

Описание: Кэти Кейн — дочь владельца частной охранной компании, которую с позором выгнали из армии. Она возвращается в родной Готэм, лишенный защиты Бэтмена — Тёмный рыцарь пропал без следа три года назад. Пока в городе орудует жестокая банда, Кэти при поддержке гениального Люка Фокса вынуждена взять на себя защиту невинных и стать Бэтвумен.

Качество: HDTVRip
Формат: AVI

Видео: 720x360, ~ 1470 Кбит/сек, 25,000 fps
Аудио: Русский / MP3 / 2.0 / 128 kbs
скриншот  скриншот  скриншот  скриншот  

Общее
Полное имя : D:\Batwoman.S01.400p.Kerob\Batwoman.S01E01.400p.Kerob.avi
Формат : AVI
Формат/Информация : Audio Video Interleave
Размер файла : 488 Мбайт
Продолжительность : 42 м. 22 с.
Общий поток : 1610 Кбит/сек
Программа кодирования : Lavf58.12.100

Видео
Идентификатор : 0
Формат : MPEG-4 Visual
Идентификатор кодека : FMP4
Продолжительность : 42 м. 22 с.
Битрейт : 1470 Кбит/сек
Ширина : 720 пикселей
Высота : 360 пикселей
Соотношение сторон : 2,000
Частота кадров : 25,000 кадров/сек
Цветовое пространство : YUV
Субдискретизация насыщенности : 4:2:0
Тип развёртки : Прогрессивная
Метод сжатия : С потерями
Бит/(Пиксели*Кадры) : 0.218
Размер потока : 427 Мбайт (88%)

Аудио
Идентификатор : 1
Формат : MPEG Audio
Версия формата : Version 1
Профиль формата : Layer 3
Режим : Joint stereo
Расширение режима : MS Stereo
Идентификатор кодека : 55
Идентификатор кодека/Подсказка : MP3
Продолжительность : 42 м. 22 с.
Вид битрейта : Постоянный
Битрейт : 128 Кбит/сек
Каналы : 2 канала
Частота : 44,1 КГц
Метод сжатия : С потерями
Размер потока : 38,8 Мбайт (8%)
Выравнивание : Соединение по промежуткам
Библиотека кодирования : LAME

Внимание! Раздача ведётся путём добавления новых серий; при каждом добавлении создаётся новый торрент. Чтобы начать докачку новой серии, пользователям необходимо сделать следующее:
(1) остановить скачивание,
(2) удалить старый торрент у себя из клиента (старые серии удалять не надо),
(3) скачать новый торрент и запустить его у себя в клиенте вместо старого, при этом указать клиенту путь в старую папку куда и должно происходить скачивание новых серий.

Ваш клиент при этом должен произвести хеширование (проверку) старой папки (если не производит сам - помогите ему сделать это), и будет докачивать только те серии которых у вас ещё нет. Старые серии при этом не удаляются, а продолжают раздаваться!

Eсли вы уже удалили старые серии, то предотвратить повторную закачку старых серий можно, отжав галочку в соответсвующих местах при запуске нового торрента. По возможности, желательно не удалять старые серии как можно дольше чтобы релизёр не столько продолжал раздавать старые серии, а смог сконцентрироваться на новых.
pibit.top



Скачать Бэтвумен через торрент https://c.radikal.ru/c18/1910/6a/c92894145116.jpg Скачать фильм Бэтвумен через торрент бесплантно в хорошем качестве Описание: Кэти Кейн — дочь владельца частной охранной компании, которую с позором выгнали из армии. Она возвращается в родной Готэм, ... 6.8 10 6
Торрент: Зарегистрирован [2020-01-20 09:04] · скачан: 2 раз
Статус: T временная
Размер: 4.04 GB
Как cкачать? Как скачать Бэтвумен через торрент | qTorrent

% Раздел Тема Автор DL S | L
Зарубежные сериалы [ 23.62 GB ] Бэтвумен / Batwoman / Сезон: 1 / Серия: 1-9 из 22 [2019 WEB-DL 1080p] MVO [Lostfilm] bober100 Скачать
1 | 0
T Зарубежные сериалы [ 29.21 GB ] Бэтвумен / Batwoman / Сезон: 1 / Серии: 1-13 из 22 [2019 WEBRip 1080p] MVO [Octopus] bober100 Скачать
2 | 2
Зарубежные сериалы [ 29.85 GB ] Бэтвумен / Batwoman / Сезон: 1 / Серия: 1-13 из 22 [2019 WEB-DL 1080p] DUB [DoubleRec.Imago] bober100 Скачать
1 | 0
Зарубежные сериалы [ 28.13 GB ] Бэтвумен / Batwoman / Сезон: 1 / Серии: 1-12 из 22 [2019 WEB-DL 1080p] MVO [TVShows] bober100 Скачать
2 | 0
Зарубежные сериалы [ 29.51 GB ] Бэтвумен / Batwoman / Сезон: 1 / Серия: 1-13 из 22 [2019 WEB-DL 1080p] MVO [Jaskier] bober100 Скачать
1 | 0


Последний раз редактировалось: bober100 (2020-01-20 09:04), всего редактировалось 7 раз(а)

28-11-2019 20:33  

Отключить всю рекламу на сайте

07-10-2019 10:05 Бэтвумен Скачать торрент  

срань господня Сезон: 1 походуpibit.top



    Дорогой пользователь! Огромная просьба, поблагодарите релизера, оцените раздачу и оставьте свои комментарий, если Вы скачали Бэтвумен через торрент бесплатно! Внесите свою лепту в развитие PiratBit!
    Комментировать посты могут только пользователи прошедшие не сложную регистрацию
    Показать сообщения:    

    Бэтвумен через торрент
    Скачать бесплатно Бэтвумен
    Бэтвумен скачать торрент
    Бэтвумен смотреть онлайн
    Cкачать фильм Бэтвумен бесплатно
    Бэтвумен скачать торрент в хорошем качестве
    Бэтвумен смотреть онлайн бесплатно в хорошем качестве


    Вы не можете начинать темы
    Вы не можете отвечать на сообщения
    Вы не можете редактировать свои сообщения
    Вы не можете удалять свои сообщения
    Вы не можете голосовать в опросах
    Вы не можете прикреплять файлы к сообщениям
    Вы можете скачивать файлы