MEGA NEWS Получи личный уникальный адрес сайта и защити себя от блокировок. Внимание количество ограничено!!!

iTunes

1+1

iTunes

мы

iTunes

1

iTunes

Чернобыль

iTunes

Ральф против интернета

Лицензия

ПШазам

Лицензия

Игра престолов

Лицензия

30
pack

ВАЖНО

!!Акция!!

Alien_RageХит недели

RePack

Resident Evil 21

ИГРА 18+

pack

RePack

Metro:Exodus

!!Акция!!

Alien_Rage

RePack

fifa19

RePack

Assassins Creed: Odyssey

RePack

NEED FOR SPEED™ PAYBACK

3 сезон

9 сезон

Бесстыжие 9 сезон

Все сериалы

все сериалы на PB.wtf

RePack

FAR CRY 5
Ребята, катастрофически не хватает 1900р. для оплаты серверов за АВГУСТ (всвязи с блокировками трафик упал в 3 раза), 1-2р., выручайте.
  

Отчаянные / Сезон: 1 / Серии: 1-12 из 12 (Дарья Полторацкая) [2019, Мелодрама, драма, HDTV 1080i] pibit.top

Отчаянные через торрент pibit.top

Раздают: 3 [ 1 MB/s ]
Размер: 28.29 GB | Добавлен: 1 д. 8 ч. назад | Торрент скачан:7 раз
Скачать  

07-10-2019 19:09 Отчаянные Скачать торрент  

Отчаянные
Год выпуска: 2019
Страна: Россия
Жанр: Мелодрама, драма
Продолжительность: ~ 00:52:00
Субтитры: отсутствуют

Режиссер: Дарья Полторацкая



В ролях: Анна Снаткина, Анна Банщикова, Светлана Корчагина, Данила Якушев, Сергей Чонишвили, Александр Левин, Олег Тактаров, Сергей Комаров, Дмитрий Ермак, Максим Деричев, Александр Гришин, Юрий Батурин, Артём Сучков, Кузьма Сапрыкин, Денис Бузин, Илья Исаев, Александра Скачкова, Сандра Вострецова, Юлия Деллос, Дмитрий Ломакин, Сергей Черданцев

Описание: В водоворот событий оказываются вовлечены две женщины с диаметрально противоположными характерами и непростыми судьбами. Объединяет Риту и Ольгу лишь одно: ни одна ни другая никогда ранее не пересекалась с преступным миром. Всё меняется и кардинально усложняется, когда Рита и Ольга сначала становятся свидетельницами убийства, а затем – невольными преступницами и главными подозреваемыми в череде громких уголовных дел. По следу беглянок «пускают собак» и власти, и лидеры криминальных группировок. Опасность подстерегает повсюду, и с каждым часом положение ухудшается. Многочисленные сложности всё время требуют находить решения, выкручиваться, действовать на пределе сил и возможностей, наконец, научиться доверять друг другу ... и – бежать, бежать…

Качество: HDTV 1080i
Формат: TS

Видео: 1920x1080, (16:9), 25 fps, AVC MPEG-TS (x264), [email protected] ~ 7104 kbps , 0.137 bit/pixel
Аудио #1: Русский: 48 kHz, AC3 Dolby Digital, 3/2 (L,C,R,l,r) + LFE ch, ~384 kbps avg
Аудио #2: Русский: 48 kHz, MPEG Layer 2, 2 ch, ~192.00 kbps avg
скриншот  скриншот  скриншот  скриншот  

Общее
Идентификатор : 1 (0x1)
Полное имя : D:ЗаписьOtchajannye.HDTV(1080i).GeneralFilm1.Otchajannye.HDTV(1080i).GeneralFilm.ts
Формат : MPEG-TS
Размер файла : 2,70 Гбайт
Продолжительность : 47 м. 43 с.
Режим общего битрейта : Переменный
Общий поток : 8086 Кбит/сек

Видео
Идентификатор : 2931 (0xB73)
Идентификатор меню : 1356 (0x54C)
Формат : AVC
Формат/Информация : Advanced Video Codec
Профиль формата : [email protected]
Параметр CABAC формата : Да
Параметр ReFrames формата : 4 кадра
Идентификатор кодека : 27
Продолжительность : 47 м. 43 с.
Битрейт : 7104 Кбит/сек
Ширина : 1920 пикселей
Высота : 1080 пикселей
Соотношение сторон : 16:9
Частота кадров : 25,000 кадров/сек
Цветовое пространство : YUV
Субдискретизация насыщенности : 4:2:0
Битовая глубина : 8 бит
Тип развёртки : MBAFF
Метод сохранения типа развёртки : Чередующиеся поля
Порядок развёртки : Верхнее поле первое
Бит/(Пиксели*Кадры) : 0.137
Размер потока : 2,37 Гбайт (88%)

Аудио #1
Идентификатор : 2932 (0xB74)
Идентификатор меню : 1356 (0x54C)
Формат : AC-3
Формат/Информация : Audio Coding 3
Расширение режима : CM (complete main)
Параметр Endianness формата : Big
Идентификатор кодека : 129
Продолжительность : 47 м. 43 с.
Вид битрейта : Постоянный
Битрейт : 384 Кбит/сек
Каналы : 6 каналов
Расположение каналов : Front: L C R, Side: L R, LFE
Частота : 48,0 КГц
Частота кадров : 31,250 кадров/сек (1536 spf)
Битовая глубина : 16 бит
Метод сжатия : С потерями
Задержка видео : -40 мс.
Размер потока : 131 Мбайт (5%)
Язык : Russian

Аудио #2
Идентификатор : 2933 (0xB75)
Идентификатор меню : 1356 (0x54C)
Формат : MPEG Audio
Версия формата : Version 1
Профиль формата : Layer 2
Режим : Joint stereo
Расширение режима : Intensity Stereo + MS Stereo
Идентификатор кодека : 3
Продолжительность : 47 м. 43 с.
Вид битрейта : Постоянный
Битрейт : 192 Кбит/сек
Каналы : 2 канала
Частота : 48,0 КГц
Метод сжатия : С потерями
Задержка видео : -40 мс.
Размер потока : 65,5 Мбайт (2%)
Язык : Russian

При каждом добавлении создаётся новый торрент. Чтобы начать докачку новой серии, пользователям необходимо сделать следующее:
- остановить скачивание;
- удалить старый торрент у себя из клиента (старые серии удалять не надо);
- скачать новый торрент и запустить его у себя в клиенте вместо старого, при этом указать клиенту путь в старую папку, куда и должно происходить скачивание новых серий.
pibit.top



Скачать Отчаянные через торрент https://d.radikal.ru/d22/1910/63/3985b60ca274.jpg Скачать фильм Отчаянные через торрент бесплантно в хорошем качестве Описание: В водоворот событий оказываются вовлечены две женщины с диаметрально противоположными характерами и непростыми судьбами. ... 10 10 5
Info! Золотая раздача, скачанное не засчитывается.
Торрент: Зарегистрирован [2019-10-16 17:02] · скачан: 7 раз
Статус: √ проверено
Размер: 28.29 GB
Как cкачать? Как скачать Отчаянные через торрент | qTorrent

% Раздел Тема Автор DL S | L
Наши сериалы [ 15.11 GB ] Отчаянные / Сезон: 1 / Серии: 1-12 из 12 [2019 Мело HDTVRip 720p] bober100 Скачать
3 | 1
Наши сериалы [ 7.3 GB ] Отчаянные / Сезон: 1 / Серии: 1-12 из 12 [2019 Мело HDTVRip] bober100 Скачать
2 | 0
Наши сериалы [ 8.96 GB ] Отчаянные / Сезон: 1 / Серии: 1-12 из 12 [2019 Мело HDTVRip-AVC] bober100 Скачать
1 | 2
Наши сериалы [ 7.03 GB ] Отчаянные / Сезон: 1 / Серии: 1-12 из 12 [2019 Мело SATRip] bober100 Скачать
4 | 0


>> Регистрируемся здесь <<






Отзывы и комментарии о схеме читаем и пишем здесь: ---> Отзывы и комментарии о схеме

Новые благодарочки в телеграм довольных пользователей:
скриншот   скриншот   скриншот   скриншот   скриншот
    Дорогой пользователь! Огромная просьба, поблагодарите релизера, оцените раздачу и оставьте свои комментарий, если Вы скачали Отчаянные через торрент бесплатно! Внесите свою лепту в развитие PiratBit!
    Комментировать посты могут только пользователи прошедшие не сложную регистрацию
    Показать сообщения:    

    Отчаянные через торрент
    Скачать бесплатно Отчаянные
    Отчаянные скачать торрент
    Отчаянные смотреть онлайн
    Cкачать фильм Отчаянные бесплатно
    Отчаянные скачать торрент в хорошем качестве
    Отчаянные смотреть онлайн бесплатно в хорошем качестве


    Вы не можете начинать темы
    Вы не можете отвечать на сообщения
    Вы не можете редактировать свои сообщения
    Вы не можете удалять свои сообщения
    Вы не можете голосовать в опросах
    Вы не можете прикреплять файлы к сообщениям
    Вы можете скачивать файлы