MEGA NEWS Получи личный уникальный адрес сайта и защити себя от блокировок. Внимание количество ограничено!!!

iTunes

1+1

iTunes

мы

iTunes

1

iTunes

Чернобыль

iTunes

Ральф против интернета

Лицензия

ПШазам

Лицензия

Игра престолов

Лицензия

30
pack

ВАЖНО

!!Акция!!

Alien_RageХит недели

RePack

Resident Evil 21

ИГРА 18+

pack

RePack

Metro:Exodus

!!Акция!!

Alien_Rage

RePack

fifa19

RePack

Assassins Creed: Odyssey

RePack

NEED FOR SPEED™ PAYBACK

3 сезон

9 сезон

Бесстыжие 9 сезон

Все сериалы

все сериалы на PB.wtf

RePack

FAR CRY 5
Ребята, катастрофически не хватает 1900р. для оплаты серверов за АВГУСТ (всвязи с блокировками трафик упал в 3 раза), 1-2р., выручайте.
  

Отчаянные / Сезон: 1 / Серии: 1-8 из 12 (Дарья Полторацкая) [2019, Мелодрама, драма, HDTVRip] pibit.top

Отчаянные через торрент pibit.top

Раздают: 2 [ 49 KB/s ] Качают: 1 [ 0 KB/s ]
Размер: 4.83 GB | Добавлен: 11 ч. назад | Торрент скачан:2 раза
Скачать  

09-10-2019 16:23 Отчаянные Скачать торрент  

Отчаянные
Год выпуска: 2019
Страна: Россия
Жанр: Мелодрама, драма
Продолжительность: ~ 00:52:00
Субтитры: отсутствуют

Режиссер: Дарья Полторацкая



В ролях: Анна Снаткина, Анна Банщикова, Светлана Корчагина, Данила Якушев, Сергей Чонишвили, Александр Левин, Олег Тактаров, Сергей Комаров, Дмитрий Ермак, Максим Деричев, Александр Гришин, Юрий Батурин, Артём Сучков, Кузьма Сапрыкин, Денис Бузин, Илья Исаев, Александра Скачкова, Сандра Вострецова, Юлия Деллос, Дмитрий Ломакин, Сергей Черданцев

Описание: В водоворот событий оказываются вовлечены две женщины с диаметрально противоположными характерами и непростыми судьбами. Объединяет Риту и Ольгу лишь одно: ни одна ни другая никогда ранее не пересекалась с преступным миром. Всё меняется и кардинально усложняется, когда Рита и Ольга сначала становятся свидетельницами убийства, а затем – невольными преступницами и главными подозреваемыми в череде громких уголовных дел. По следу беглянок «пускают собак» и власти, и лидеры криминальных группировок. Опасность подстерегает повсюду, и с каждым часом положение ухудшается. Многочисленные сложности всё время требуют находить решения, выкручиваться, действовать на пределе сил и возможностей, наконец, научиться доверять друг другу ... и – бежать, бежать…

Качество: HDTVRip
Формат: AVI

Видео: 720x400 (1.80:1), 25 fps, XviD build 73 ~1600 kbps avg, 0.22 bit/pixel
Аудио: 48 kHz, AC3 Dolby Digital, 2/0 (L,R) ch, ~192.00 kbps avg
скриншот  скриншот  скриншот  скриншот  

Общее
Полное имя : D:Otchajannye.HDTVRip.GeneralFilm1.Otchajannye.HDTVRip.GeneralFilm.avi
Формат : AVI
Формат/Информация : Audio Video Interleave
Размер файла : 609 Мбайт
Продолжительность : 47 м. 43 с.
Общий поток : 1785 Кбит/сек
Программа кодирования : VirtualDubMod 1.5.10.3 | www.virtualdub-fr.org || (build 2550/release)
Библиотека кодирования : VirtualDubMod build 2550/release

Видео
Идентификатор : 0
Формат : MPEG-4 Visual
Профиль формата : Advanced [email protected]
Параметр BVOP формата : 1
Параметр QPel формата : Нет
Параметр GMC формата : Без точки перехода
Параметр матрицы формата : Выборочная
Идентификатор кодека : XVID
Идентификатор кодека/Подсказка : XviD
Продолжительность : 47 м. 43 с.
Битрейт : 1583 Кбит/сек
Ширина : 720 пикселей
Высота : 400 пикселей
Соотношение сторон : 16:9
Частота кадров : 25,000 кадров/сек
Цветовое пространство : YUV
Субдискретизация насыщенности : 4:2:0
Битовая глубина : 8 бит
Тип развёртки : Прогрессивная
Метод сжатия : С потерями
Бит/(Пиксели*Кадры) : 0.220
Размер потока : 540 Мбайт (89%)
Библиотека кодирования : XviD 1.2.1 (UTC 2008-12-04)

Аудио
Идентификатор : 1
Формат : AC-3
Формат/Информация : Audio Coding 3
Расширение режима : CM (complete main)
Параметр Endianness формата : Big
Идентификатор кодека : 2000
Продолжительность : 47 м. 43 с.
Вид битрейта : Постоянный
Битрейт : 192 Кбит/сек
Каналы : 2 канала
Расположение каналов : Front: L R
Частота : 48,0 КГц
Частота кадров : 31,250 кадров/сек (1536 spf)
Битовая глубина : 16 бит
Метод сжатия : С потерями
Размер потока : 65,5 Мбайт (11%)
Выравнивание : Разделение по промежуткам
Продолжительность промежутка : 40 мс. (1,00 видеокадр)
Время предзагрузки промежутка : 500 мс.

При каждом добавлении создаётся новый торрент. Чтобы начать докачку новой серии, пользователям необходимо сделать следующее:
- остановить скачивание;
- удалить старый торрент у себя из клиента (старые серии удалять не надо);
- скачать новый торрент и запустить его у себя в клиенте вместо старого, при этом указать клиенту путь в старую папку, куда и должно происходить скачивание новых серий.
pibit.top



Скачать Отчаянные через торрент https://d.radikal.ru/d22/1910/63/3985b60ca274.jpg Скачать фильм Отчаянные через торрент бесплантно в хорошем качестве Описание: В водоворот событий оказываются вовлечены две женщины с диаметрально противоположными характерами и непростыми судьбами. ... 10 10 4
Торрент: Зарегистрирован [2019-10-15 22:38] · скачан: 2 раз
Статус: √ проверено
Размер: 4.83 GB
Как cкачать? Как скачать Отчаянные через торрент | qTorrent

% Раздел Тема Автор DL S | L
Наши сериалы [ 18.37 GB ] Отчаянные / Сезон: 1 / Серии: 1-8 из 12 [2019 Мело HDTV 1080i] bober100 Скачать
3 | 0
Наши сериалы [ 5.91 GB ] Отчаянные / Сезон: 1 / Серии: 1-8 из 12 [2019 Мело HDTVRip-AVC] bober100 Скачать
1 | 2


>> Регистрируемся здесь <<






Отзывы и комментарии о схеме читаем и пишем здесь: ---> Отзывы и комментарии о схеме

Новые благодарочки в телеграм довольных пользователей:
скриншот   скриншот   скриншот   скриншот   скриншот
    Дорогой пользователь! Огромная просьба, поблагодарите релизера, оцените раздачу и оставьте свои комментарий, если Вы скачали Отчаянные через торрент бесплатно! Внесите свою лепту в развитие PiratBit!
    Комментировать посты могут только пользователи прошедшие не сложную регистрацию
    Показать сообщения:    

    Отчаянные через торрент
    Скачать бесплатно Отчаянные
    Отчаянные скачать торрент
    Отчаянные смотреть онлайн
    Cкачать фильм Отчаянные бесплатно
    Отчаянные скачать торрент в хорошем качестве
    Отчаянные смотреть онлайн бесплатно в хорошем качестве


    Вы не можете начинать темы
    Вы не можете отвечать на сообщения
    Вы не можете редактировать свои сообщения
    Вы не можете удалять свои сообщения
    Вы не можете голосовать в опросах
    Вы не можете прикреплять файлы к сообщениям
    Вы можете скачивать файлы