новый адрес
Ссылка на приватное зеркало всего за 1$. Внимание количество ограничено!!!

iTunes

1+1

iTunes

мы

WEB-DL

1

iTunes

Чернобыль

iTunes

Ральф против интернета

Лицензия

ПШазам

Лицензия

Оно 2

Лицензия

30
pack

Вам бонус

ВАЖНО

!!Акция!!

Alien_RageХит недели

RePack

Resident Evil 21

ИГРА 18+

pack

RePack

jed

!!Акция!!

Alien_Rage

RePack

fifa19

RePack

Assassins Creed: Odyssey

RePack

NEED FOR SPEED™ PAYBACK

3 сезон

9 сезон

Бесстыжие 9 сезон

Все сериалы

все сериалы на PB.wtf

RePack

FAR CRY 5
Ребята, катастрофически не хватает 1900р. для оплаты серверов за Октябрь (всвязи с блокировками трафик упал в 3 раза), 1-2р., выручайте.
  

Обитель зла: Проклятие / Biohazard: Damnation / Resident Evil: Damnation (Макото Камия) [2012 г., Мультфильм, ужасы, фантастика, боевик, триллер, BDRip 1080p-HEVC 10bit, Профессиональный (многоголосый)] pibit.top

Обитель зла: Проклятие через торрент pibit.top

Раздают: 10 [ 0 KB/s ] Качают: 1 [ 0 KB/s ]
Размер: 2.52 GB | Добавлен: 1 мес. 6 д. назад | Торрент скачан:196 раз
Скачать  

06-11-2019 08:00 Обитель зла: Проклятие Скачать торрент  

Обитель зла: Проклятие / Biohazard: Damnation / Resident Evil: Damnation
Год выпуска: 2012
Страна: Япония
Жанр: Мультфильм, ужасы, фантастика, боевик, триллер
Продолжительность: 01:40:02
Перевод: Профессиональный (многоголосый) (Лицензия)
Субтитры: нет

Режиссер: Макото Камия



В ролях: Робин Сакс, Кортни Тейлор, Кэролин Лоуренс, Мэттью Мерсер, Уэнди Ли, Дейв Уиттенберг, Салли Саффиоти, Вэл Тассо, Элисон Корт

Описание: Продолжение популярной компьютерной анимации «Обитель зла: Вырождение». Леон Кеннеди отправляется в Восточную Европу на борьбу с монстрами — порождениями корпорации Амбрела. Больше монстров, больше пушек, больше экшена.

Качество: BDRip 1080p
Формат: MKV
Видео кодек: H.265
Аудио кодек: AC3
Видео: HEVC/H.265, 1920x1080, ~3225 Kbps
Аудио#1: AC3, 6 ch, 384 Kbps Русский (профессиональный многоголосый (Лицензия))
Релиз от: ADVOKAT69
скриншот  ,скриншот  ,скриншот  ,скриншот  ,

Общее
Уникальный идентификатор : 229643805448868281316035799836633147101 (0xACC3C9C3EAAB2DEEA04CC90C229926DD)
Полное имя : E:\Обитель зла Проклятие (2012) HEVC 10bit.mkv
Формат : Matroska
Версия формата : Version 4
Размер файла : 2,52 Гбайт
Продолжительность : 1 ч. 40 м.
Общий поток : 3611 Кбит/сек
Название фильма : Resident Evil: Damnation
Дата кодирования : UTC 2019-11-05 10:04:35
Программа кодирования : mkvmerge v9.2.0 ('Photograph') 64bit
Библиотека кодирования : libebml v1.3.3 + libmatroska v1.4.4

Видео
Идентификатор : 1
Формат : HEVC
Формат/Информация : High Efficiency Video Coding
Профиль формата : Main [email protected]@Main
Идентификатор кодека : V_MPEGH/ISO/HEVC
Продолжительность : 1 ч. 40 м.
Битрейт : 3225 Кбит/сек
Ширина : 1920 пикселей
Высота : 1080 пикселей
Соотношение сторон : 16:9
Режим частоты кадров : Постоянный
Частота кадров : 23,976 (24000/1001) кадра/сек
Цветовое пространство : YUV
Субдискретизация насыщенности : 4:2:0
Битовая глубина : 10 бит
Бит/(Пиксели*Кадры) : 0.065
Размер потока : 2,25 Гбайт (89%)
Библиотека кодирования : x265 2.2+22-20217c8af8ac:[Windows][GCC 6.2.0][64 bit] 10bit
Настройки программы : cpuid=1173503 / frame-threads=3 / numa-pools=8 / wpp / no-pmode / no-pme / no-psnr / no-ssim / log-level=2 / input-csp=1 / input-res=1920x1080 / interlace=0 / total-frames=143904 / level-idc=0 / high-tier=1 / uhd-bd=0 / ref=3 / no-allow-non-conformance / no-repeat-headers / annexb / no-aud / no-hrd / info / hash=0 / no-temporal-layers / open-gop / min-keyint=23 / keyint=250 / bframes=4 / b-adapt=2 / b-pyramid / bframe-bias=0 / rc-lookahead=20 / lookahead-slices=6 / scenecut=40 / no-intra-refresh / ctu=64 / min-cu-size=8 / no-rect / no-amp / max-tu-size=32 / tu-inter-depth=1 / tu-intra-depth=1 / limit-tu=0 / rdoq-level=0 / signhide / no-tskip / nr-intra=0 / nr-inter=0 / no-constrained-intra / strong-intra-smoothing / max-merge=2 / limit-refs=3 / no-limit-modes / me=1 / subme=2 / merange=57 / temporal-mvp / weightp / no-weightb / no-analyze-src-pics / deblock=0:0 / sao / no-sao-non-deblock / rd=3 / no-early-skip / rskip / no-fast-intra / no-tskip-fast / no-cu-lossless / no-b-intra / rdpenalty=0 / psy-rd=2.00 / psy-rdoq=0.00 / no-rd-refine / analysis-mode=0 / no-lossless / cbqpoffs=0 / crqpoffs=0 / rc=abr / bitrate=3224 / qcomp=0.60 / qpstep=4 / stats-write=0 / stats-read=2 / cplxblur=20.0 / qblur=0.5 / ipratio=1.40 / pbratio=1.30 / aq-mode=2 / aq-strength=1.00 / cutree / zone-count=0 / no-strict-cbr / qg-size=32 / no-rc-grain / qpmax=69 / qpmin=0 / sar=0 / overscan=0 / videoformat=5 / range=0 / colorprim=2 / transfer=2 / colormatrix=2 / chromaloc=0 / display-window=0 / max-cll=0,0 / min-luma=0 / max-luma=1023 / log2-max-poc-lsb=8 / vui-timing-info / vui-hrd-info / slices=1 / opt-qp-pps / opt-ref-list-length-pps / no-multi-pass-opt-rps / scenecut-bias=0.05 / no-opt-cu-delta-qp / no-aq-motion
Default : Да
Forced : Нет

Аудио
Идентификатор : 2
Формат : AC-3
Формат/Информация : Audio Coding 3
Коммерческое название : Dolby Digital
Идентификатор кодека : A_AC3
Продолжительность : 1 ч. 40 м.
Вид битрейта : Постоянный
Битрейт : 384 Кбит/сек
Каналы : 6 каналов
Channel layout : L R C LFE Ls Rs
Частота : 48,0 КГц
Частота кадров : 31,250 кадров/сек (1536 SPF)
Битовая глубина : 16 бит
Метод сжатия : С потерями
Размер потока : 275 Мбайт (11%)
Заголовок : Профессиональный (многоголосый, закадровый) R5
ServiceKind/String : Complete Main
Default : Да
Forced : Нет

Меню
00:00:00.000 : en:Chapter 01
00:05:32.999 : en:Chapter 02
00:12:53.314 : en:Chapter 03
00:18:27.898 : en:Chapter 04
00:23:51.596 : en:Chapter 05
00:30:03.551 : en:Chapter 06
00:36:01.284 : en:Chapter 07
00:41:54.178 : en:Chapter 08
00:49:30.008 : en:Chapter 09
00:53:58.193 : en:Chapter 10
00:58:38.806 : en:Chapter 11
01:04:52.889 : en:Chapter 12
01:13:41.083 : en:Chapter 13
01:17:42.115 : en:Chapter 14
01:23:16.992 : en:Chapter 15
01:28:18.042 : en:Chapter 16

pibit.top



Скачать Обитель зла: Проклятие через торрент https://a.radikal.ru/a15/1911/32/22a25b2a5376.png Скачать фильм Обитель зла: Проклятие через торрент бесплантно в хорошем качестве Описание: Продолжение популярной компьютерной анимации «Обитель зла: Вырождение». Леон Кеннеди отправляется в Восточную Европу на борьбу с ... 9.7 10 11
Торрент: Зарегистрирован [2019-11-06 08:00] · скачан: 196 раз
Статус: √ проверено
Размер: 2.52 GB
Как cкачать? Как скачать Обитель зла: Проклятие через торрент | qTorrent

% Раздел Тема Автор DL S | L
Иностранные мультфильмы [ 2.18 GB ] Обитель зла: Проклятие / Resident Evil: Damnation / Biohazard: Damnation [2012 Мультфильм BDRip MVO лицензия] Gafar82 Скачать
1 | 0

28-11-2019 20:33  

Отключить всю рекламу на сайте

    Дорогой пользователь! Огромная просьба, поблагодарите релизера, оцените раздачу и оставьте свои комментарий, если Вы скачали Обитель зла: Проклятие через торрент бесплатно! Внесите свою лепту в развитие PiratBit!
    Комментировать посты могут только пользователи прошедшие не сложную регистрацию
    Показать сообщения:    

    Обитель зла: Проклятие через торрент
    Скачать бесплатно Обитель зла: Проклятие
    Обитель зла: Проклятие скачать торрент
    Обитель зла: Проклятие смотреть онлайн
    Cкачать фильм Обитель зла: Проклятие бесплатно
    Обитель зла: Проклятие скачать торрент в хорошем качестве
    Обитель зла: Проклятие смотреть онлайн бесплатно в хорошем качестве


    Вы не можете начинать темы
    Вы не можете отвечать на сообщения
    Вы не можете редактировать свои сообщения
    Вы не можете удалять свои сообщения
    Вы не можете голосовать в опросах
    Вы не можете прикреплять файлы к сообщениям
    Вы можете скачивать файлы