Ссылка на приватное зеркало всего за 1$. Внимание количество ограничено!!!

iTunes

1+1

iTunes

мы

WEB-DL

1

iTunes

Чернобыль

iTunes

Ральф против интернета

Лицензия

ПШазам

Лицензия

Оно 2

Лицензия

30
pack

Вам бонус

ВАЖНО

!!Акция!!

Alien_RageХит недели

RePack

Resident Evil 21

ИГРА 18+

pack

RePack

jed

!!Акция!!

Alien_Rage

RePack

fifa19

RePack

Assassins Creed: Odyssey

RePack

NEED FOR SPEED™ PAYBACK

3 сезон

9 сезон

Бесстыжие 9 сезон

Все сериалы

все сериалы на PB.wtf

RePack

FAR CRY 5
Ребята, катастрофически не хватает 1900р. для оплаты серверов за Октябрь (всвязи с блокировками трафик упал в 3 раза), 1-2р., выручайте.
  

Утреннее шоу / The Morning Show / Сезон: 1 / Серии: 1-8 из 10 (Мими Ледер, Дэвид Фрэнкел, Роксанн Доусон) [2019, драма, комедия, WEB-DLRip] MVO [Jaskier] pibit.top

Утреннее шоу через торрент pibit.top

Размер: 6.1 GB | Добавлен: 4 д. назад | Торрент скачан:2 раза
Скачать  

07-11-2019 10:13 Утреннее шоу Скачать торрент  

Утреннее шоу / The Morning Show
Год выпуска: 2019
Страна: США
Жанр: драма, комедия
Продолжительность: ~ 01:00:00 серия
Перевод: Профессиональный многоголосый | Jaskier
Субтитры: отсутствуют

Режиссер: Мими Ледер, Дэвид Фрэнкел, Роксанн Доусон

rating

В ролях: Дженнифер Энистон, Стив Карелл, Риз Уизерспун, Нестор Карбонелл, Билли Крадап, Марк Дюпласс, Янина Гаванкар, Гугу Мбата-Роу, Карен Питтман, Бел Паули и другие.

Описание: Этот сериал погрузит зрителей в пучину амбиций, эгоцентризма и стремления к власти, которые скрываются за глянцевыми студиями американских утренних шоу.

Качество: WEB-DLRip
Формат: AVI

Видео: XviD, ~ 1400 kbps, 704x352, 23.976 fps
Аудио#1: MP3, 48,0 КГц, 2 ch, 128 kbps - RUS
Аудио#2: MP3, 48,0 КГц, 2 ch, 128 kbps - ENG
скриншот  скриншот  скриншот  

Общее
Полное имя : C:\The.Morning.Show. Season 1 (400p l Jaskier)\The.Morning.Show.S01E01.400p.Jaskier.avi
Формат : AVI
Формат/Информация : Audio Video Interleave
Размер файла : 760 Мбайт
Продолжительность : 1 ч. 3 м.
Общий поток : 1670 Кбит/сек
Программа кодирования : VirtualDubMod 1.5.10.3 | www.virtualdub-fr.org || (build 2550/release)
Библиотека кодирования : VirtualDubMod build 2550/release

Видео
Идентификатор : 0
Формат : MPEG-4 Visual
Профиль формата : Advanced [email protected]
Настройки формата : BVOP2 / Custom Matrix
Параметр BVOP формата : 2
Параметр QPel формата : Нет
Параметр GMC формата : Без точки перехода
Параметр матрицы формата : Выборочная
Идентификатор кодека : XVID
Идентификатор кодека/Подсказка : XviD
Продолжительность : 1 ч. 3 м.
Битрейт : 1337 Кбит/сек
Ширина : 704 пикселя
Высота : 352 пикселя
Соотношение сторон : 2,000
Частота кадров : 23,976 (24000/1001) кадра/сек
Цветовое пространство : YUV
Субдискретизация насыщенности : 4:2:0
Битовая глубина : 8 бит
Тип развёртки : Прогрессивная
Метод сжатия : С потерями
Бит/(Пиксели*Кадры) : 0.225
Размер потока : 608 Мбайт (80%)
Библиотека кодирования : XviD 73

Аудио #1
Идентификатор : 1
Формат : MPEG Audio
Версия формата : Version 1
Профиль формата : Layer 3
Настройки формата : Joint stereo / MS Stereo
Идентификатор кодека : 55
Идентификатор кодека/Подсказка : MP3
Продолжительность : 1 ч. 3 м.
Вид битрейта : Постоянный
Битрейт : 128 Кбит/сек
Каналы : 2 канала
Частота : 48,0 КГц
Метод сжатия : С потерями
Размер потока : 58,3 Мбайт (8%)
Выравнивание : Соединение по промежуткам

Аудио #2
Идентификатор : 2
Формат : MPEG Audio
Версия формата : Version 1
Профиль формата : Layer 3
Настройки формата : Joint stereo
Идентификатор кодека : 55
Идентификатор кодека/Подсказка : MP3
Продолжительность : 1 ч. 3 м.
Вид битрейта : Постоянный
Битрейт : 128 Кбит/сек
Каналы : 2 канала
Частота : 48,0 КГц
Метод сжатия : С потерями
Размер потока : 58,3 Мбайт (8%)
Выравнивание : Соединение по промежуткам

Когда раздача ведётся путём добавления новых серий, при каждом добавлении создётся новый торрент. Чтобы начать докачку новой серии, пользователям необходимо сделать следующее:
(1) остановить скачивание,
(2) удалить старый торрент у себя из клиента (старые серии удалять не надо),
(3) скачать новый торрент и запустить его у себя в клиенте вместо старого, при этом указать клиенту путь в старую папку, куда и должно происходить скачивание новых серий.
Ваш клиент при этом должен произвести хеширование (проверку) старой папки (если не производит сам - помогите ему сделать это), и будет докачивать только те серии, которых у вас ещё нет. Старые серии при этом не удаляются, а продолжают раздаваться!
Eсли вы уже удалили старые серии, то предотвратить повторную закачку старых серий можно, отжав галочку в соответсвующих местах при запуске нового торрента. По возможности, желательно не удалять старые серии как можно дольше, чтобы релизёр не столько продолжал раздавать старые серии, а смог сконцентрироваться на новых.
pibit.top



Скачать Утреннее шоу через торрент https://i111.fastpic.ru/big/2019/1107/47/cb7dc362d069b2a88d7fe25193b50547.png Скачать фильм Утреннее шоу через торрент бесплантно в хорошем качестве Описание: Этот сериал погрузит зрителей в пучину амбиций, эгоцентризма и стремления к власти, которые скрываются за глянцевыми ми ... 10 10 3
Торрент: Зарегистрирован [2019-12-10 15:32] · скачан: 2 раз
Статус: √ проверено
Размер: 6.1 GB
Как cкачать? Как скачать Утреннее шоу через торрент | qTorrent

% Раздел Тема Автор DL S | L
Зарубежные сериалы [ 35.34 GB ] Утреннее шоу / The Morning Show / Сезон: 1 / Серии: 1-8 из 10 [2019 WEB-DL 1080p] MVO [TVShows] bober100 Скачать
2 | 2
Зарубежные сериалы [ 35.21 GB ] Утреннее шоу / The Morning Show / Сезон: 1 / Серии: 1-8 из 10 [2019 WEB-DL 1080p] MVO [Jaskier] bober100 Скачать
1 | 0
Зарубежные сериалы [ 11.78 GB ] Утреннее шоу / The Morning Show / Сезон: 1 / Серии: 1-8 из 10 [2019 WEB-DL 720p] MVO [Jaskier] bober100 Скачать
2 | 0

28-11-2019 20:33  

Отключить всю рекламу на сайте

    Дорогой пользователь! Огромная просьба, поблагодарите релизера, оцените раздачу и оставьте свои комментарий, если Вы скачали Утреннее шоу через торрент бесплатно! Внесите свою лепту в развитие PiratBit!
    Комментировать посты могут только пользователи прошедшие не сложную регистрацию
    Показать сообщения:    

    Утреннее шоу через торрент
    Скачать бесплатно Утреннее шоу
    Утреннее шоу скачать торрент
    Утреннее шоу смотреть онлайн
    Cкачать фильм Утреннее шоу бесплатно
    Утреннее шоу скачать торрент в хорошем качестве
    Утреннее шоу смотреть онлайн бесплатно в хорошем качестве


    Вы не можете начинать темы
    Вы не можете отвечать на сообщения
    Вы не можете редактировать свои сообщения
    Вы не можете удалять свои сообщения
    Вы не можете голосовать в опросах
    Вы не можете прикреплять файлы к сообщениям
    Вы можете скачивать файлы