Ссылка на приватное зеркало всего за 1$. Внимание количество ограничено!!!

iTunes

1+1

iTunes

мы

WEB-DL

1

iTunes

Чернобыль

iTunes

Ральф против интернета

Лицензия

ПШазам

Лицензия

Оно 2

Лицензия

30
pack

Вам бонус

ВАЖНО

!!Акция!!

Alien_RageХит недели

RePack

Resident Evil 21

ИГРА 18+

pack

RePack

jed

!!Акция!!

Alien_Rage

RePack

fifa19

RePack

Assassins Creed: Odyssey

RePack

NEED FOR SPEED™ PAYBACK

3 сезон

9 сезон

Бесстыжие 9 сезон

Все сериалы

все сериалы на PB.wtf

RePack

FAR CRY 5
Ребята, катастрофически не хватает 1900р. для оплаты серверов за Октябрь (всвязи с блокировками трафик упал в 3 раза), 1-2р., выручайте.
  

Утреннее шоу / The Morning Show / Сезон: 1 / Серии: 1-8 из 10 (Мими Ледер, Дэвид Фрэнкел, Роксанн Доусон) [2019, драма, комедия, WEB-DL 1080p] MVO [Jaskier] pibit.top

Утреннее шоу через торрент pibit.top

Размер: 35.21 GB | Добавлен: 4 д. назад | Торрент скачан:1 раз
Скачать  

07-11-2019 10:13 Утреннее шоу Скачать торрент  

Утреннее шоу / The Morning Show
Год выпуска: 2019
Страна: США
Жанр: драма, комедия
Продолжительность: ~ 01:00:00 серия
Перевод: Профессиональный многоголосый | Jaskier
Субтитры: отсутствуют

Режиссер: Мими Ледер, Дэвид Фрэнкел, Роксанн Доусон

rating

В ролях: Дженнифер Энистон, Стив Карелл, Риз Уизерспун, Нестор Карбонелл, Билли Крадап, Марк Дюпласс, Янина Гаванкар, Гугу Мбата-Роу, Карен Питтман, Бел Паули и другие.

Описание: Этот сериал погрузит зрителей в пучину амбиций, эгоцентризма и стремления к власти, которые скрываются за глянцевыми студиями американских утренних шоу.

Качество: WEB-DL 1080p
Формат: MKV

Видео: X264, ~ 10000 kbps, 1920x960, 23.976 fps
Аудио#1: AC3, 48,0 КГц, 6 ch, 384 kbps - RUS
Аудио#2: AC3, 48,0 КГц, 6 ch, 384 kbps - Eng
скриншот  скриншот  скриншот  

Общее
Уникальный идентификатор : 225620041006104985487383940576036766191 (0xA9BCD6DC8B9524F1BE2CDBC78E63C1EF)
Полное имя : C:\The.Morning.Show. Season 1 (1080p l Jaskier)\The.Morning.Show.S01E01.1080p.Jaskier.mkv
Формат : Matroska
Версия формата : Version 2
Размер файла : 4,77 Гбайт
Продолжительность : 1 ч. 3 м.
Общий поток : 10,7 Мбит/сек
Дата кодирования : UTC 2019-11-07 03:29:06
Программа кодирования : mkvmerge v7.8.0 ('River Man') 32bit built on Apr 3 2015 12:11:22
Библиотека кодирования : libebml v1.3.1 + libmatroska v1.4.2

Видео
Идентификатор : 1
Формат : AVC
Формат/Информация : Advanced Video Codec
Профиль формата : [email protected]
Настройки формата : CABAC / 4 Ref Frames
Параметр CABAC формата : Да
Параметр RefFrames формата : 4 кадра
Идентификатор кодека : V_MPEG4/ISO/AVC
Продолжительность : 1 ч. 3 м.
Битрейт : 9839 Кбит/сек
Ширина : 1920 пикселей
Высота : 960 пикселей
Соотношение сторон : 2,000
Режим частоты кадров : Постоянный
Частота кадров : 23,976 (24000/1001) кадра/сек
Цветовое пространство : YUV
Субдискретизация насыщенности : 4:2:0
Битовая глубина : 8 бит
Тип развёртки : Прогрессивная
Бит/(Пиксели*Кадры) : 0.220
Размер потока : 4,33 Гбайт (91%)
Язык : English
Default : Да
Forced : Нет
Цветовой диапазон : Limited
Основные цвета : BT.709
Характеристики трансфера : BT.709
Коэффициенты матрицы : BT.709

Аудио #1
Идентификатор : 2
Формат : AC-3
Формат/Информация : Audio Coding 3
Коммерческое название : Dolby Digital
Идентификатор кодека : A_AC3
Продолжительность : 1 ч. 3 м.
Вид битрейта : Постоянный
Битрейт : 384 Кбит/сек
Каналы : 6 каналов
ChannelLayout : L R C LFE Ls Rs
Частота : 48,0 КГц
Частота кадров : 31,250 кадров/сек (1536 SPF)
Битовая глубина : 16 бит
Метод сжатия : С потерями
Размер потока : 175 Мбайт (4%)
Язык : Russian
ServiceKind/String : Complete Main
Default : Да
Forced : Нет

Аудио #2
Идентификатор : 3
Формат : AC-3
Формат/Информация : Audio Coding 3
Коммерческое название : Dolby Digital
Идентификатор кодека : A_AC3
Продолжительность : 1 ч. 3 м.
Вид битрейта : Постоянный
Битрейт : 384 Кбит/сек
Каналы : 6 каналов
ChannelLayout : L R C LFE Ls Rs
Частота : 48,0 КГц
Частота кадров : 31,250 кадров/сек (1536 SPF)
Битовая глубина : 16 бит
Метод сжатия : С потерями
Размер потока : 175 Мбайт (4%)
Язык : English
ServiceKind/String : Complete Main
Default : Нет
Forced : Нет

Когда раздача ведётся путём добавления новых серий, при каждом добавлении создётся новый торрент. Чтобы начать докачку новой серии, пользователям необходимо сделать следующее:
(1) остановить скачивание,
(2) удалить старый торрент у себя из клиента (старые серии удалять не надо),
(3) скачать новый торрент и запустить его у себя в клиенте вместо старого, при этом указать клиенту путь в старую папку, куда и должно происходить скачивание новых серий.
Ваш клиент при этом должен произвести хеширование (проверку) старой папки (если не производит сам - помогите ему сделать это), и будет докачивать только те серии, которых у вас ещё нет. Старые серии при этом не удаляются, а продолжают раздаваться!
Eсли вы уже удалили старые серии, то предотвратить повторную закачку старых серий можно, отжав галочку в соответсвующих местах при запуске нового торрента. По возможности, желательно не удалять старые серии как можно дольше, чтобы релизёр не столько продолжал раздавать старые серии, а смог сконцентрироваться на новых.
pibit.top



Скачать Утреннее шоу через торрент https://i111.fastpic.ru/big/2019/1107/47/cb7dc362d069b2a88d7fe25193b50547.png Скачать фильм Утреннее шоу через торрент бесплантно в хорошем качестве Описание: Этот сериал погрузит зрителей в пучину амбиций, эгоцентризма и стремления к власти, которые скрываются за глянцевыми ми ... 10 10 2
Торрент: Зарегистрирован [2019-12-10 15:34] · скачан: 1 раз
Статус: √ проверено
Размер: 35.21 GB
Как cкачать? Как скачать Утреннее шоу через торрент | qTorrent

% Раздел Тема Автор DL S | L
Зарубежные сериалы [ 35.34 GB ] Утреннее шоу / The Morning Show / Сезон: 1 / Серии: 1-8 из 10 [2019 WEB-DL 1080p] MVO [TVShows] bober100 Скачать
2 | 2
Зарубежные сериалы [ 11.78 GB ] Утреннее шоу / The Morning Show / Сезон: 1 / Серии: 1-8 из 10 [2019 WEB-DL 720p] MVO [Jaskier] bober100 Скачать
2 | 0
Зарубежные сериалы [ 6.1 GB ] Утреннее шоу / The Morning Show / Сезон: 1 / Серии: 1-8 из 10 [2019 WEB-DLRip] MVO [Jaskier] bober100 Скачать
1 | 0


Последний раз редактировалось: bober100 (2019-12-10 15:34), всего редактировалось 5 раз(а)

28-11-2019 20:33  

Отключить всю рекламу на сайте

07-11-2019 12:13 Утреннее шоу Скачать торрент  

Стоит посмотреть? Ибо рейтинг мне кажется завышен.pibit.top



07-11-2019 19:15 Утреннее шоу Скачать торрент  

FatmanM писал(а):

Стоит посмотреть? Ибо рейтинг мне кажется завышен.

пока стоит,интересен их взгляд изнутри на вакханалию феминизма и политкорректности,так сказать прямиком из оплота всего хорошего против всего плохого.но это моё мнение пока только по 3 сериям.хз куда их понесёт дальше.да,...и Энистон как всегда отлично играет))Риз тоже)-вывозят)pibit.top



    Дорогой пользователь! Огромная просьба, поблагодарите релизера, оцените раздачу и оставьте свои комментарий, если Вы скачали Утреннее шоу через торрент бесплатно! Внесите свою лепту в развитие PiratBit!
    Комментировать посты могут только пользователи прошедшие не сложную регистрацию
    Показать сообщения:    

    Утреннее шоу через торрент
    Скачать бесплатно Утреннее шоу
    Утреннее шоу скачать торрент
    Утреннее шоу смотреть онлайн
    Cкачать фильм Утреннее шоу бесплатно
    Утреннее шоу скачать торрент в хорошем качестве
    Утреннее шоу смотреть онлайн бесплатно в хорошем качестве


    Вы не можете начинать темы
    Вы не можете отвечать на сообщения
    Вы не можете редактировать свои сообщения
    Вы не можете удалять свои сообщения
    Вы не можете голосовать в опросах
    Вы не можете прикреплять файлы к сообщениям
    Вы можете скачивать файлы