новый адрес
Ссылка на приватное зеркало всего за 1$. Внимание количество ограничено!!!

iTunes

1+1

iTunes

мы

WEB-DL

1

iTunes

Чернобыль

iTunes

Ральф против интернета

Лицензия

ПШазам

Лицензия

Оно 2

Лицензия

30
pack

Вам бонус

ВАЖНО

!!Акция!!

Alien_RageХит недели

RePack

Resident Evil 21

ИГРА 18+

pack

RePack

jed

!!Акция!!

Alien_Rage

RePack

fifa19

RePack

Assassins Creed: Odyssey

RePack

NEED FOR SPEED™ PAYBACK

3 сезон

9 сезон

Бесстыжие 9 сезон

Все сериалы

все сериалы на PB.wtf

RePack

FAR CRY 5
Ребята, катастрофически не хватает 1900р. для оплаты серверов за Октябрь (всвязи с блокировками трафик упал в 3 раза), 1-2р., выручайте.
  

Клаус / Klaus (Серджо Паблос) [2019, мультфильм, семейный, фэнтези, комедия, приключения, WEB-DL 1080p] DUB [Невафильм] pibit.top

Клаус через торрент pibit.top

Раздают: 27 [ 100 KB/s ]
Размер: 3.19 GB | Добавлен: 25 д. назад | Торрент скачан:459 раз
Скачать  

15-11-2019 13:11 Клаус Скачать торрент  

Клаус / Klaus
Год выпуска: 2019
Страна: Испания
Жанр: мультфильм, семейный, фэнтези, комедия, приключения
Продолжительность: 01:38:03
Перевод: Дублированный | Невафильм
Субтитры: русские, английские, немецкие, польские, датские, шведские, португальские, французские, шведские, финские, греческие, итальянские, норвежские, испанские, индонезийские, турецкие

Режиссер: Серджо Паблос

rating

В ролях: Джоан Кьюсак, Рашида Джонс, Дж.К. Симмонс, Джейсон Шварцман, Такер Мик, Мила Бренер, Sydney Brower, Sky Alexis, Финн Карр, Bailey Rae Fenderson

Описание: Молодого почтальона отправляют на работу в заснеженную деревушку с крайне недружелюбными и негостеприимными жителями. Там он встречает странного создателя игрушек, и между ними завязывается необычная дружба.

Качество: WEB-DL 1080p
Формат: MKV

Видео: 1920x1080, 24 fps, ~3320 kbps avg, 0.063 bit/pixel
Аудио#1: 48kHz, E-AC3, 6 ch, 640 kbps [RUS]
Аудио#2: 48kHz, E-AC3+Atmos, 6 ch, 768 kbps [ENG]
скриншот  скриншот  скриншот  скриншот  

Общее
Уникальный идентификатор : 107070161606966684096666512211050078653 (0x508CF689B80A5E23F74D96F9A919A1BD)
Полное имя : C:\Users\root\Desktop\Netflix\output\Klaus.2019.WEB-DL 1080p.mkv
Формат : Matroska
Версия формата : Version 4
Размер файла : 3,19 Гбайт
Продолжительность : 1 ч. 38 м.
Режим общего битрейта : Переменный
Общий поток : 4654 Кбит/сек
Дата кодирования : UTC 2019-11-15 09:42:37
Программа кодирования : mkvmerge v40.0.0 ('Old Town Road + Pony') 64-bit
Библиотека кодирования : libebml v1.3.9 + libmatroska v1.5.2

Видео
Идентификатор : 1
Формат : AVC
Формат/Информация : Advanced Video Codec
Профиль формата : [email protected]
Настройки формата : CABAC / 3 Ref Frames
Параметр CABAC формата : Да
Параметр RefFrames формата : 3 кадра
Идентификатор кодека : V_MPEG4/ISO/AVC
Продолжительность : 1 ч. 38 м.
Вид битрейта : Переменный
Битрейт : 3320 Кбит/сек
Максимальный битрейт : 4980 Кбит/сек
Ширина : 1920 пикселей
Высота : 1080 пикселей
Соотношение сторон : 16:9
Режим частоты кадров : Постоянный
Частота кадров : 24,000 кадра/сек
Цветовое пространство : YUV
Субдискретизация насыщенности : 4:2:0
Битовая глубина : 8 бит
Тип развёртки : Прогрессивная
Бит/(Пиксели*Кадры) : 0.067
Размер потока : 2,22 Гбайт (70%)
Библиотека кодирования : x264 core 148 r2715 7e75228
Настройки программы : cabac=1 / ref=3 / deblock=1:0:0 / analyse=0x1:0x111 / me=umh / subme=10 / psy=1 / psy_rd=1.00:0.00 / mixed_ref=1 / me_range=24 / chroma_me=1 / trellis=2 / 8x8dct=0 / cqm=0 / deadzone=21,11 / fast_pskip=1 / chroma_qp_offset=-2 / threads=6 / lookahead_threads=1 / sliced_threads=0 / nr=0 / decimate=1 / interlaced=0 / bluray_compat=0 / stitchable=1 / constrained_intra=0 / bframes=2 / b_pyramid=0 / b_adapt=2 / b_bias=0 / direct=3 / weightb=1 / open_gop=0 / weightp=2 / keyint=250 / keyint_min=24 / scenecut=0 / intra_refresh=0 / rc_lookahead=48 / rc=2pass / mbtree=1 / bitrate=3320 / ratetol=1.0 / qcomp=0.50 / qpmin=6 / qpmax=51 / qpstep=4 / cplxblur=20.0 / qblur=0.5 / vbv_maxrate=4980 / vbv_bufsize=6640 / nal_hrd=vbr / filler=0 / ip_ratio=1.40 / aq=1:1.00
Default : Да
Forced : Нет

Аудио #1
Идентификатор : 2
Формат : E-AC-3
Формат/Информация : Enhanced AC-3
Коммерческое название : Dolby Digital Plus
Идентификатор кодека : A_EAC3
Продолжительность : 1 ч. 38 м.
Вид битрейта : Постоянный
Битрейт : 640 Кбит/сек
Каналы : 6 каналов
ChannelLayout : L R C LFE Ls Rs
Частота : 48,0 КГц
Частота кадров : 31,250 кадров/сек (1536 SPF)
Метод сжатия : С потерями
Размер потока : 449 Мбайт (14%)
Заголовок : DUB
Язык : Russian
ServiceKind/String : Complete Main
Default : Да
Forced : Нет

Аудио #2
Идентификатор : 3
Формат : E-AC-3 JOC
Формат/Информация : Enhanced AC-3 with Joint Object Coding
Коммерческое название : Dolby Digital Plus with Dolby Atmos
Идентификатор кодека : A_EAC3
Продолжительность : 1 ч. 38 м.
Вид битрейта : Постоянный
Битрейт : 768 Кбит/сек
Каналы : 6 каналов
ChannelLayout : L R C LFE Ls Rs
Частота : 48,0 КГц
Частота кадров : 31,250 кадров/сек (1536 SPF)
Метод сжатия : С потерями
Размер потока : 539 Мбайт (17%)
Заголовок : ENG
Язык : English
ServiceKind/String : Complete Main
Default : Нет
Forced : Нет
ComplexityIndex : 16
NumberOfDynamicObjects : 15
BedChannelCount/String : 1 канал
BedChannelConfiguration : LFE

Текст #1
Идентификатор : 4
Формат : UTF-8
Идентификатор кодека : S_TEXT/UTF8
Идентификатор кодека/Информация : UTF-8 Plain Text
Продолжительность : 1 ч. 32 м.
Битрейт : 70 бит/сек
ElementCount : 1634
Размер потока : 47,8 Кбайт (0%)
Заголовок : English
Язык : English
Default : Нет
Forced : Нет

Текст #2
Идентификатор : 5
Формат : UTF-8
Идентификатор кодека : S_TEXT/UTF8
Идентификатор кодека/Информация : UTF-8 Plain Text
Продолжительность : 1 ч. 36 м.
Битрейт : 51 бит/сек
ElementCount : 1046
Размер потока : 36,4 Кбайт (0%)
Заголовок : German
Язык : German
Default : Нет
Forced : Нет

Текст #3
Идентификатор : 6
Формат : UTF-8
Идентификатор кодека : S_TEXT/UTF8
Идентификатор кодека/Информация : UTF-8 Plain Text
Продолжительность : 1 ч. 36 м.
Битрейт : 44 бит/сек
ElementCount : 1016
Размер потока : 31,4 Кбайт (0%)
Заголовок : Polish
Язык : Polish
Default : Нет
Forced : Нет

Текст #4
Идентификатор : 7
Формат : UTF-8
Идентификатор кодека : S_TEXT/UTF8
Идентификатор кодека/Информация : UTF-8 Plain Text
Продолжительность : 1 ч. 36 м.
Битрейт : 44 бит/сек
ElementCount : 965
Размер потока : 31,7 Кбайт (0%)
Заголовок : Danish
Язык : Danish
Default : Нет
Forced : Нет

Текст #5
Идентификатор : 8
Формат : UTF-8
Идентификатор кодека : S_TEXT/UTF8
Идентификатор кодека/Информация : UTF-8 Plain Text
Продолжительность : 1 ч. 36 м.
Битрейт : 47 бит/сек
ElementCount : 952
Размер потока : 33,2 Кбайт (0%)
Заголовок : Swedish
Язык : Swedish
Default : Нет
Forced : Нет

Текст #6
Идентификатор : 9
Формат : UTF-8
Идентификатор кодека : S_TEXT/UTF8
Идентификатор кодека/Информация : UTF-8 Plain Text
Продолжительность : 1 ч. 36 м.
Битрейт : 48 бит/сек
ElementCount : 1129
Размер потока : 34,1 Кбайт (0%)
Заголовок : Portuguese
Язык : Portuguese
Default : Нет
Forced : Нет

Текст #7
Идентификатор : 10
Формат : UTF-8
Идентификатор кодека : S_TEXT/UTF8
Идентификатор кодека/Информация : UTF-8 Plain Text
Продолжительность : 1 ч. 36 м.
Битрейт : 49 бит/сек
ElementCount : 1193
Размер потока : 35,1 Кбайт (0%)
Заголовок : French
Язык : French
Default : Нет
Forced : Нет

Текст #8
Идентификатор : 11
Формат : UTF-8
Идентификатор кодека : S_TEXT/UTF8
Идентификатор кодека/Информация : UTF-8 Plain Text
Продолжительность : 1 ч. 36 м.
Битрейт : 51 бит/сек
ElementCount : 1160
Размер потока : 36,1 Кбайт (0%)
Заголовок : Czech
Язык : Czech
Default : Нет
Forced : Нет

Текст #9
Идентификатор : 12
Формат : UTF-8
Идентификатор кодека : S_TEXT/UTF8
Идентификатор кодека/Информация : UTF-8 Plain Text
Продолжительность : 1 ч. 36 м.
Битрейт : 48 бит/сек
ElementCount : 1241
Размер потока : 34,1 Кбайт (0%)
Заголовок : Brazilian Portuguese
Язык : Portuguese
Default : Нет
Forced : Нет

Текст #10
Идентификатор : 13
Формат : UTF-8
Идентификатор кодека : S_TEXT/UTF8
Идентификатор кодека/Информация : UTF-8 Plain Text
Продолжительность : 1 ч. 36 м.
Битрейт : 78 бит/сек
ElementCount : 1242
Размер потока : 55,8 Кбайт (0%)
Заголовок : Greek
Язык : Greek
Default : Нет
Forced : Нет

Текст #11
Идентификатор : 14
Формат : UTF-8
Идентификатор кодека : S_TEXT/UTF8
Идентификатор кодека/Информация : UTF-8 Plain Text
Продолжительность : 1 ч. 36 м.
Битрейт : 80 бит/сек
ElementCount : 1220
Размер потока : 57,2 Кбайт (0%)
Заголовок : Russian
Язык : Russian
Default : Нет
Forced : Нет

Текст #12
Идентификатор : 15
Формат : UTF-8
Идентификатор кодека : S_TEXT/UTF8
Идентификатор кодека/Информация : UTF-8 Plain Text
Продолжительность : 1 ч. 36 м.
Битрейт : 48 бит/сек
ElementCount : 1017
Размер потока : 34,2 Кбайт (0%)
Заголовок : Finnish
Язык : Finnish
Default : Нет
Forced : Нет

Текст #13
Идентификатор : 16
Формат : UTF-8
Идентификатор кодека : S_TEXT/UTF8
Идентификатор кодека/Информация : UTF-8 Plain Text
Продолжительность : 1 ч. 36 м.
Битрейт : 47 бит/сек
ElementCount : 1119
Размер потока : 33,3 Кбайт (0%)
Заголовок : Hungarian
Язык : Hungarian
Default : Нет
Forced : Нет

Текст #14
Идентификатор : 17
Формат : UTF-8
Идентификатор кодека : S_TEXT/UTF8
Идентификатор кодека/Информация : UTF-8 Plain Text
Продолжительность : 1 ч. 36 м.
Битрейт : 50 бит/сек
ElementCount : 1240
Размер потока : 35,5 Кбайт (0%)
Заголовок : European Spanish
Язык : Spanish
Default : Нет
Forced : Нет

Текст #15
Идентификатор : 18
Формат : UTF-8
Идентификатор кодека : S_TEXT/UTF8
Идентификатор кодека/Информация : UTF-8 Plain Text
Продолжительность : 1 ч. 36 м.
Битрейт : 50 бит/сек
ElementCount : 1222
Размер потока : 35,9 Кбайт (0%)
Заголовок : Indonesian
Язык : Indonesian
Default : Нет
Forced : Нет

Текст #16
Идентификатор : 19
Формат : UTF-8
Идентификатор кодека : S_TEXT/UTF8
Идентификатор кодека/Информация : UTF-8 Plain Text
Продолжительность : 1 ч. 36 м.
Битрейт : 50 бит/сек
ElementCount : 1223
Размер потока : 35,4 Кбайт (0%)
Заголовок : Turkish
Язык : Turkish
Default : Нет
Forced : Да

Текст #17
Идентификатор : 20
Формат : UTF-8
Идентификатор кодека : S_TEXT/UTF8
Идентификатор кодека/Информация : UTF-8 Plain Text
Продолжительность : 1 ч. 36 м.
Битрейт : 48 бит/сек
ElementCount : 1087
Размер потока : 34,3 Кбайт (0%)
Заголовок : Dutch
Язык : Dutch
Default : Нет
Forced : Нет

Текст #18
Идентификатор : 21
Формат : UTF-8
Идентификатор кодека : S_TEXT/UTF8
Идентификатор кодека/Информация : UTF-8 Plain Text
Продолжительность : 1 ч. 36 м.
Битрейт : 50 бит/сек
ElementCount : 1242
Размер потока : 35,6 Кбайт (0%)
Заголовок : Spanish
Язык : Spanish
Default : Нет
Forced : Нет

Текст #19
Идентификатор : 22
Формат : UTF-8
Идентификатор кодека : S_TEXT/UTF8
Идентификатор кодека/Информация : UTF-8 Plain Text
Продолжительность : 1 ч. 36 м.
Битрейт : 45 бит/сек
ElementCount : 969
Размер потока : 32,4 Кбайт (0%)
Заголовок : Norwegian
Язык : Norwegian
Default : Нет
Forced : Нет

Текст #20
Идентификатор : 23
Формат : UTF-8
Идентификатор кодека : S_TEXT/UTF8
Идентификатор кодека/Информация : UTF-8 Plain Text
Продолжительность : 1 ч. 36 м.
Битрейт : 43 бит/сек
ElementCount : 1041
Размер потока : 31,0 Кбайт (0%)
Заголовок : Italian
Язык : Italian
Default : Нет
Forced : Нет

pibit.top



Скачать Клаус через торрент https://i111.fastpic.ru/big/2019/1115/2d/623941a126df411f252175e91c19332d.jpg Скачать фильм Клаус через торрент бесплантно в хорошем качестве Описание: Молодого почтальона отправляют на работу в заснеженную деревушку с крайне недружелюбными и негостеприимными жителями. Там он ... 10 10 13
Info! Золотая раздача, скачанное не засчитывается.
Торрент: Зарегистрирован [2019-11-15 13:11] · скачан: 459 раз
Статус: √ проверено
Размер: 3.19 GB
Как cкачать? Как скачать Клаус через торрент | qTorrent

% Раздел Тема Автор DL S | L
Иностранные мультфильмы [ 743 MB ] Клаус / Klaus [2019 мультфильм WEB-DLRip-AVC] DUB [Невафильм] - OlLanDGroup Skandar2019 Скачать
4 | 0
Иностранные мультфильмы [ 1.47 GB ] Клаус / Klaus [2019 мультфильм WEB-DLRip] - [Невафильм] Twi7ter Скачать
58 | 2
Иностранные мультфильмы [ 746 MB ] Клаус / Klaus [2019 мультфильм WEB-DLRip] DUB [Невафильм] - OlLanDGroup Skandar2019 Скачать
1 | 0
Иностранные мультфильмы [ 1.46 GB ] Клаус / Klaus [2019 мультфильм WEB-DLRip] DUB [Невафильм] bober100 Скачать
3 | 0
Военное дело [ 870 MB ] Охота на Клауса Барби / Hunting for Klaus Barbie [2017 Документальный история война расследование HDTVRip ] Armstrong Скачать
1 | 0
Порно фильмы без сюжета [ 1.37 GB ] Старший Брат Клаус в Действии / Big Brother Klaus in Action [2009 All Sex Anal Amateure Outdoor TV- and Film-Stars DVDRip] Empinado Скачать
1 | 0

28-11-2019 20:33  

Отключить всю рекламу на сайте

15-11-2019 14:31 Клаус Скачать торрент  

Кто-нибудь смотрел? Что за необычная дружба между ними завязывается (европейский мульт то)? Детям скачать можно?pibit.top



15-11-2019 17:01 Клаус Скачать торрент  

не оченьpibit.top



15-11-2019 18:48 Клаус Скачать торрент  

Хороший мультик. Мне очень понравился.pibit.top



21-11-2019 04:59 Клаус Скачать торрент  

Отличный мультфильм, рассказывающий необычную историю на свой лад о том, как появился Санта Клаус. Смотрели с дочкой 8 лет, оба остались в восторге, рекомендую. На мой взгляд лучший мультфильм этого года.pibit.top



23-11-2019 12:02 Клаус Скачать торрент  

отличный добрый мультик,мне 38 лет ,а сидел с дочкой как ребенок и смотрел с удовольствиемpibit.top



    Дорогой пользователь! Огромная просьба, поблагодарите релизера, оцените раздачу и оставьте свои комментарий, если Вы скачали Клаус через торрент бесплатно! Внесите свою лепту в развитие PiratBit!
    Комментировать посты могут только пользователи прошедшие не сложную регистрацию
    Показать сообщения:    

    Клаус через торрент
    Скачать бесплатно Клаус
    Клаус скачать торрент
    Клаус смотреть онлайн
    Cкачать фильм Клаус бесплатно
    Клаус скачать торрент в хорошем качестве
    Клаус смотреть онлайн бесплатно в хорошем качестве


    Вы не можете начинать темы
    Вы не можете отвечать на сообщения
    Вы не можете редактировать свои сообщения
    Вы не можете удалять свои сообщения
    Вы не можете голосовать в опросах
    Вы не можете прикреплять файлы к сообщениям
    Вы можете скачивать файлы