новый адрес
Ссылка на приватное зеркало всего за 1$. Внимание количество ограничено!!!

iTunes

1+1

iTunes

мы

WEB-DL

1

iTunes

Чернобыль

iTunes

Ральф против интернета

Лицензия

ПШазам

Лицензия

Оно 2

Лицензия

30
pack

Вам бонус

ВАЖНО

!!Акция!!

Alien_RageХит недели

RePack

Resident Evil 21

ИГРА 18+

pack

RePack

jed

!!Акция!!

Alien_Rage

RePack

fifa19

RePack

Assassins Creed: Odyssey

RePack

NEED FOR SPEED™ PAYBACK

3 сезон

9 сезон

Бесстыжие 9 сезон

Все сериалы

все сериалы на PB.wtf

RePack

FAR CRY 5
Ребята, катастрофически не хватает 1900р. для оплаты серверов за Октябрь (всвязи с блокировками трафик упал в 3 раза), 1-2р., выручайте.
  

Робо (Сарик Андреасян) [2019, семейный, фантастика, драма, WEB-DL 1080p] [iTunes] pibit.top

Робо через торрент pibit.top

Раздают: 34 [ 10 MB/s ] Качают: 9 [ 3 MB/s ]
Размер: 3.45 GB | Добавлен: 14 ч. назад | Торрент скачан:75 раз
Скачать  

16-11-2019 11:33 Робо Скачать торрент  

Робо
Год выпуска: 2019
Страна: Россия
Жанр: семейный, фантастика, драма
Продолжительность: 01:27:48
Перевод: Не требуется | iTunes
Субтитры: отсутствуют

Режиссер: Сарик Андреасян

rating

В ролях: Даниил Муравьев-Изотов, Владимир Вдовиченков, Сергей Безруков, Мария Миронова, Константин Лавроненко, Грант Тохатян, Елизавета Моряк, Кристина Орса, Елена Борщева, Клим Бердинский

Описание: 12-летний Митя Привалов мечтает рисовать комиксы о супергероях. Но родители мальчика, инженеры-робототехники, хотят, чтобы он пошел по их стопам. Понимание и поддержку Митя находит там, где не ждал: у созданного родителями робота-спасателя А-112 или просто Робо. Их ждут невероятные приключения, в ходе которых Митя научит нового друга верить в себя и свои мечты, а Робо станет для мальчика примером мужества и ответственности.

Качество: WEB-DL 1080p
Формат: MKV

Видео: MPEG4 AVC Video, H264, 2.40:1, 1920x804, 24 fps, 5238 kbps
Аудио: Russian (AC3, 6 ch, 384 kbps, 16 bits, 48.0 KHz) - оригинал
скриншот  скриншот  скриншот  скриншот  скриншот  

General
Unique ID : 202981666120355575667593825548628975028 (0x98B4D8CE1045DE9DBD09A4246280DDB4)
Complete name : D:\Robo.2019.WEB-DL.(1080p).Getty.mkv
Format : Matroska
Format version : Version 4 / Version 2
File size : 3.45 GiB
Duration : 1 h 27 min
Overall bit rate : 5 624 kb/s
Movie name : Robo.2019.WEB-DL.(1080p).Getty
Encoded date : UTC 2019-12-11 23:31:57
Writing application : mkvmerge v7.8.0 ('River Man') 32bit built on Mar 27 2015 16:18:02
Writing library : libebml v1.3.1 + libmatroska v1.4.2

Video
ID : 1
Format : AVC
Format/Info : Advanced Video Codec
Format profile : [email protected]
Format settings : CABAC / 4 Ref Frames
Format settings, CABAC : Yes
Format settings, ReFrames : 4 frames
Codec ID : V_MPEG4/ISO/AVC
Duration : 1 h 27 min
Bit rate : 5 238 kb/s
Width : 1 920 pixels
Height : 804 pixels
Display aspect ratio : 2.40:1
Frame rate mode : Constant
Frame rate : 24.000 FPS
Color space : YUV
Chroma subsampling : 4:2:0
Bit depth : 8 bits
Scan type : Progressive
Bits/(Pixel*Frame) : 0.141
Stream size : 3.21 GiB (93%)
Default : Yes
Forced : No

Audio
ID : 2
Format : AC-3
Format/Info : Audio Coding 3
Codec ID : A_AC3
Duration : 1 h 27 min
Bit rate mode : Constant
Bit rate : 384 kb/s
Channel(s) : 6 channels
Channel positions : Front: L C R, Side: L R, LFE
Sampling rate : 48.0 kHz
Frame rate : 31.250 FPS (1536 SPF)
Bit depth : 16 bits
Compression mode : Lossy
Stream size : 241 MiB (7%)
Service kind : Complete Main
Default : Yes
Forced : No

pibit.top



Скачать Робо через торрент https://b.radikal.ru/b37/1911/df/79922605e9ce.jpg Скачать фильм Робо через торрент бесплантно в хорошем качестве Описание: 12-летний Митя Привалов мечтает рисовать комиксы о супергероях. Но родители мальчика, инженеры-робототехники, хотят, чтобы он ... 7 10 6
Торрент: Зарегистрирован [2019-12-12 04:22] · скачан: 75 раз
Статус: √ проверено
Размер: 3.45 GB
Как cкачать? Как скачать Робо через торрент | qTorrent

% Раздел Тема Автор DL S | L
Зарубежные сериалы [ 2.56 GB ] Как Я Встретил Вашу Маму / How I Met Your Mother / [2005 Mело Kомедия DVDRip Пиратка] Reshkut Скачать
1 | 1
Иностранные мультфильмы [ 1.36 GB ] Астробой / Astro Boy [2009 мультфильм HDRip] DEVI Скачать
1 | 0
Зарубежные сериалы [ 2.6 GB ] Как Я Встретил Вашу Маму / How I Met Your Mother / [2006 DVDRip Пиратка] Reshkut Скачать
1 | 0
Фильмы 2001-2005 [ 1.37 GB ] Большая жратва / Waiting.. [2005 HDRip] GoldEX Скачать
1 | 0
Сборники на DVD и Сиквелы [DVDrip, WEB-DLRip, HDrip, BDRip] [ 6.54 GB ] Мумия. Трилогия / The Mummy. Trilogy [1999-2008г BDRip] [email protected]$ Скачать
1 | 0
Фильмы 2010 [ 1.37 GB ] Братство танца: Возвращение домой / Stomp the Yard 2: Homecoming [2010 DVDRip] [ лицензия ] MIO2008 Скачать
1 | 0
# Фильмы до 2000 г. [ 4.2 GB ] Робокоп / RoboCop [1987 HDTVRip ] terraner Скачать
1 | 0


Последний раз редактировалось: bober100 (2019-12-12 09:57), всего редактировалось 3 раз(а)

28-11-2019 20:33  

Отключить всю рекламу на сайте

12-12-2019 05:21 Робо Скачать торрент  

pibit.top



12-12-2019 05:45 Робо Скачать торрент  

Когда этот хач уйдет обратно торговать шаурмойpibit.top



12-12-2019 07:01 Робо Скачать торрент  

Я подожду пока Женя BadComedian обзор сделает )))pibit.top



12-12-2019 13:06 Робо Скачать торрент  

обзор Бэда 100% интереснее будет )))pibit.top



    Дорогой пользователь! Огромная просьба, поблагодарите релизера, оцените раздачу и оставьте свои комментарий, если Вы скачали Робо через торрент бесплатно! Внесите свою лепту в развитие PiratBit!
    Комментировать посты могут только пользователи прошедшие не сложную регистрацию
    Показать сообщения:    

    Робо через торрент
    Скачать бесплатно Робо
    Робо скачать торрент
    Робо смотреть онлайн
    Cкачать фильм Робо бесплатно
    Робо скачать торрент в хорошем качестве
    Робо смотреть онлайн бесплатно в хорошем качестве


    Вы не можете начинать темы
    Вы не можете отвечать на сообщения
    Вы не можете редактировать свои сообщения
    Вы не можете удалять свои сообщения
    Вы не можете голосовать в опросах
    Вы не можете прикреплять файлы к сообщениям
    Вы можете скачивать файлы