новый адрес
Ссылка на приватное зеркало всего за 1$. Внимание количество ограничено!!!

iTunes

1+1

iTunes

мы

WEB-DL

1

iTunes

Чернобыль

iTunes

Ральф против интернета

Лицензия

ПШазам

Лицензия

Оно 2

Лицензия

30
pack

Вам бонус

ВАЖНО

!!Акция!!

Alien_RageХит недели

RePack

Resident Evil 21

ИГРА 18+

pack

RePack

jed

!!Акция!!

Alien_Rage

RePack

fifa19

RePack

Assassins Creed: Odyssey

RePack

NEED FOR SPEED™ PAYBACK

3 сезон

9 сезон

Бесстыжие 9 сезон

Все сериалы

все сериалы на PB.wtf

RePack

FAR CRY 5
Ребята, катастрофически не хватает 1900р. для оплаты серверов за Октябрь (всвязи с блокировками трафик упал в 3 раза), 1-2р., выручайте.
  

В ловушке времени / Timeline (Ричард Доннер) [2003, Фантастика, фэнтези, боевик, приключения, BDRip 1080p] DUB+AVO+DVO+MVO (rus, ukr) pibit.top

В ловушке времени через торрент pibit.top

Раздают: 1 [ 0 KB/s ]
Размер: 15.01 GB | Добавлен: 10 д. назад | Торрент скачан:60 раз
Скачать  

01-12-2019 09:44 В ловушке времени Скачать торрент  

В ловушке времени / Timeline
Год выпуска: 2003
Страна: США
Жанр: Фантастика, фэнтези, боевик, приключения
Продолжительность: 01:51:11
Перевод: Дублированный, Профессиональный многоголосый, Профессиональный двухголосый, Авторский
Субтитры: Английские

Режиссер: Ричард Доннер

rating

В ролях: Пол Уокер, Фрэнсис О'Коннор, Джерард Батлер, Билли Конноли, Дэвид Тьюлис, Анна Фриел, Нил МакДоноу, Мэтт Крэйвен, Майкл Шин, Ламберт Уилсон, Итан Эмбри

Описание: По мотивам бестселлера Майкла Крайтона.Группа археологов неожиданно узнает об опасном эксперименте по перемещению во времени, секретно проведенном одним из финансовых магнатов. Их возмущение возрастает, когда оказывается, что в результате эксперимента их любимый профессор попал в средневековую Францию! Уверенные в том, что их знаний о средневековой Европе будет достаточно, чтобы вернуть профессора живым и невредимым, они перемещаются в XIV век и попадают в гущу событий, основное из которых война. Смогут ли они спасти профессора в этом новом незнакомом мире?..

Качество: BDRip 1080p
Формат: MKV

Видео: MPEG-4 AVC, 13.8 Мбит/с, 1920x816, 25 кадр/с
Аудио#1 Russian :48 kHz, AC3, 2/0 (L,R) ch, ~448.00 kbps avg |Дублированный, Премьер-Видео|
Аудио#2 Russian :48 kHz, DTS, 3/2 (L,C,R,l,r) + LFE ch, ~1510 kbps avg |Профессиональный многоголосый, R5|
Аудио#3 Russian :48 kHz, DTS, 3/2 (L,C,R,l,r) + LFE ch, ~1510 kbps avg |Авторский одноголосый, Ю.Живов|
Аудио#4 Russian :48 kHz, AC3, 2/0 (L,R) ch, ~192.00 kbps avg |Профессиональный двухголосый, SDI Media|
Аудио#5 Ukrainian :48 kHz, AC3, 3/2 (L,C,R,l,r) + LFE ch, ~384 kbps avg |Профессиональный многоголосый, переведенно и озвученно студией "Контакт" по заказу телеканала "1+1"|
Аудио#6 English :48 kHz, DTS, 3/2 (L,C,R,l,r) + LFE ch, ~1510 kbps avg
скриншот  скриншот  скриншот  

Timeline.2003.1080p.BluRay.4xRus.Ukr.Eng.HDCLUB.mkv
Format : Matroska
Format version : Version 4 / Version 2
File size : 15.0 GiB
Duration : 1h 51mn
Overall bit rate : 19.3 Mbps
Movie name : Timeline (2003)
Encoded date : UTC 2013-02-14 11:04:20
Writing application : mkvmerge v6.0.0 ('Coming Up For Air') built on Jan 20 2013 09:52:00
Writing library : libebml v1.3.0 + libmatroska v1.4.0

Video
ID : 1
Format : AVC
Format/Info : Advanced Video Codec
Format profile : [email protected]
Format settings, CABAC : Yes
Format settings, ReFrames : 4 frames
Codec ID : V_MPEG4/ISO/AVC
Duration : 1h 51mn
Bit rate : 13.8 Mbps
Width : 1 920 pixels
Height : 816 pixels
Display aspect ratio : 2.35:1
Frame rate mode : Constant
Frame rate : 25.000 fps
Color space : YUV
Chroma subsampling : 4:2:0
Bit depth : 8 bits
Scan type : Progressive
Bits/(Pixel*Frame) : 0.351
Stream size : 10.4 GiB (69%)
Title : Timeline (2003)
Writing library : x264 core 129 r2245 bc13772
Encoding settings : cabac=1 / ref=4 / deblock=1:-1:-1 / analyse=0x3:0x113 / me=umh / subme=10 / psy=1 / psy_rd=1.00:0.20 / mixed_ref=1 / me_range=32 / chroma_me=1 / trellis=2 / 8x8dct=1 / cqm=0 / deadzone=21,11 / fast_pskip=0 / chroma_qp_offset=-3 / threads=12 / lookahead_threads=2 / sliced_threads=0 / nr=0 / decimate=0 / interlaced=0 / bluray_compat=0 / constrained_intra=0 / bframes=6 / b_pyramid=2 / b_adapt=2 / b_bias=0 / direct=3 / weightb=1 / open_gop=0 / weightp=2 / keyint=250 / keyint_min=25 / scenecut=40 / intra_refresh=0 / rc_lookahead=40 / rc=2pass / mbtree=0 / bitrate=13764 / ratetol=1.0 / qcomp=0.60 / qpmin=0 / qpmax=69 / qpstep=4 / cplxblur=20.0 / qblur=0.5 / vbv_maxrate=50000 / vbv_bufsize=62500 / nal_hrd=none / ip_ratio=1.40 / pb_ratio=1.30 / aq=1:1.00
Language : English
Default : Yes
Forced : No

Audio #1
ID : 2
Format : AC-3
Format/Info : Audio Coding 3
Mode extension : CM (complete main)
Format settings, Endianness : Big
Codec ID : A_AC3
Duration : 1h 51mn
Bit rate mode : Constant
Bit rate : 448 Kbps
Channel(s) : 2 channels
Channel positions : Front: L R
Sampling rate : 48.0 KHz
Bit depth : 16 bits
Compression mode : Lossy
Stream size : 356 MiB (2%)
Title : AC3 2 ch 448 kbps DUB (Premer-Video)
Language : Russian
Default : Yes
Forced : No

Audio #2
ID : 3
Format : DTS
Format/Info : Digital Theater Systems
Mode : 16
Format settings, Endianness : Big
Codec ID : A_DTS
Duration : 1h 51mn
Bit rate mode : Constant
Bit rate : 1 510 Kbps
Channel(s) : 6 channels
Channel positions : Front: L C R, Side: L R, LFE
Sampling rate : 48.0 KHz
Bit depth : 16 bits
Compression mode : Lossy
Stream size : 1.17 GiB (8%)
Title : DTS 6 ch 1510 kbps MVO (R5)
Language : Russian
Default : No
Forced : No

Audio #3
ID : 4
Format : DTS
Format/Info : Digital Theater Systems
Mode : 16
Format settings, Endianness : Big
Codec ID : A_DTS
Duration : 1h 51mn
Bit rate mode : Constant
Bit rate : 1 510 Kbps
Channel(s) : 6 channels
Channel positions : Front: L C R, Side: L R, LFE
Sampling rate : 48.0 KHz
Bit depth : 16 bits
Compression mode : Lossy
Stream size : 1.17 GiB (8%)
Title : DTS 6 ch 1510 kbps AVO (Jivov)
Language : Russian
Default : No
Forced : No

Audio #4
ID : 5
Format : AC-3
Format/Info : Audio Coding 3
Mode extension : CM (complete main)
Format settings, Endianness : Big
Codec ID : A_AC3
Duration : 1h 51mn
Bit rate mode : Constant
Bit rate : 192 Kbps
Channel(s) : 2 channels
Channel positions : Front: L R
Sampling rate : 48.0 KHz
Bit depth : 16 bits
Compression mode : Lossy
Stream size : 153 MiB (1%)
Title : AC3 2 ch 192 kbps DVO (SDI Media)
Language : Russian
Default : No
Forced : No

Audio #5
ID : 6
Format : AC-3
Format/Info : Audio Coding 3
Mode extension : CM (complete main)
Format settings, Endianness : Big
Codec ID : A_AC3
Duration : 1h 51mn
Bit rate mode : Constant
Bit rate : 384 Kbps
Channel(s) : 6 channels
Channel positions : Front: L C R, Side: L R, LFE
Sampling rate : 48.0 KHz
Bit depth : 16 bits
Compression mode : Lossy
Stream size : 305 MiB (2%)
Title : AC3 6 ch 384 kbps MVO (1+1)
Language : Ukrainian
Default : No
Forced : No

Audio #6
ID : 7
Format : DTS
Format/Info : Digital Theater Systems
Mode : 16
Format settings, Endianness : Big
Codec ID : A_DTS
Duration : 1h 51mn
Bit rate mode : Constant
Bit rate : 1 510 Kbps
Channel(s) : 6 channels
Channel positions : Front: L C R, Side: L R, LFE
Sampling rate : 48.0 KHz
Bit depth : 16 bits
Compression mode : Lossy
Stream size : 1.17 GiB (8%)
Title : DTS 6 ch 1510 kbps Original
Language : English
Default : No
Forced : No

Text
ID : 8
Format : UTF-8
Codec ID : S_TEXT/UTF8
Codec ID/Info : UTF-8 Plain Text
Title : English
Language : English
Default : No
Forced : No

Menu
00:00:00.000 : en:Paper Doll
00:03:55.039 : en:Dig Site
00:08:54.640 : en:Clues From the Past
00:17:05.040 : en:Itc
00:22:32.880 : en:The Chance of a Lifetime
00:28:42.400 : en:1357 France
00:36:07.760 : en:Castlegard
00:42:52.960 : en:Prison Break
00:50:58.400 : en:Rescue
00:55:42.320 : en:Prophet or Fool
01:01:28.920 : en:Claire and Arnaut
01:08:05.560 : en:Fortifying La Roque
01:15:05.800 : en:The Tunnel
01:26:11.560 : en:A Place in History
01:32:08.600 : en:It's Me!
01:41:44.960 : en:The Sarcophagus

pibit.top



Скачать В ловушке времени через торрент http://i52.fastpic.ru/big/2013/0206/52/4387a9113b0a45ad66eff035c1274752.png Скачать фильм В ловушке времени через торрент бесплантно в хорошем качестве Описание: По мотивам бестселлера Майкла Крайтона.Группа археологов неожиданно узнает об опасном эксперименте по перемещению во времени, ... 8.2 10 5
Торрент: Зарегистрирован [2019-12-01 09:44] · скачан: 60 раз
Статус: √ проверено
Размер: 15.01 GB
Как cкачать? Как скачать В ловушке времени через торрент | qTorrent

% Раздел Тема Автор DL S | L
Фильмы [HD 720p, 1080p] (Хороший звук DUB, MVO) [ 7.58 GB ] В ловушке времени / Timeline [2003 BDRip 1080p [HEVC] ] Мичман37 Скачать
3 | 0
Фильмы 2001-2005 [ 1.45 GB ] В ловушке времени / Timeline [2003 HDRip DUB] lev1244v Скачать
1 | 0
Фильмы [HD 720p, 1080p] (Хороший звук DUB, MVO) [ 4.01 GB ] В ловушке времени / Timeline [2003 BDRip 720p] VintMosina Скачать
2 | 0
Фильмы 2001-2005 [ 698 MB ] В ловушке времени / Timeline [2003 LowHDRip ] 220v0lt Скачать
1 | 0

28-11-2019 20:33  

Отключить всю рекламу на сайте

    Дорогой пользователь! Огромная просьба, поблагодарите релизера, оцените раздачу и оставьте свои комментарий, если Вы скачали В ловушке времени через торрент бесплатно! Внесите свою лепту в развитие PiratBit!
    Комментировать посты могут только пользователи прошедшие не сложную регистрацию
    Показать сообщения:    

    В ловушке времени через торрент
    Скачать бесплатно В ловушке времени
    В ловушке времени скачать торрент
    В ловушке времени смотреть онлайн
    Cкачать фильм В ловушке времени бесплатно
    В ловушке времени скачать торрент в хорошем качестве
    В ловушке времени смотреть онлайн бесплатно в хорошем качестве


    Вы не можете начинать темы
    Вы не можете отвечать на сообщения
    Вы не можете редактировать свои сообщения
    Вы не можете удалять свои сообщения
    Вы не можете голосовать в опросах
    Вы не можете прикреплять файлы к сообщениям
    Вы можете скачивать файлы