Ссылка на приватное зеркало всего за 1$. Внимание количество ограничено!!!

iTunes

1+1

iTunes

мы

WEB-DL

1

iTunes

Чернобыль

iTunes

Ральф против интернета

Лицензия

ПШазам

Лицензия

Оно 2

Лицензия

30
pack

Вам бонус

ВАЖНО

!!Акция!!

Alien_RageХит недели

RePack

Resident Evil 21

ИГРА 18+

pack

RePack

jed

!!Акция!!

Alien_Rage

RePack

fifa19

RePack

Assassins Creed: Odyssey

RePack

NEED FOR SPEED™ PAYBACK

3 сезон

9 сезон

Бесстыжие 9 сезон

Все сериалы

все сериалы на PB.wtf

RePack

FAR CRY 5
Ребята, катастрофически не хватает 1900р. для оплаты серверов за Октябрь (всвязи с блокировками трафик упал в 3 раза), 1-2р., выручайте.
  

Оно 2 / It Chapter Two (Андрес Мускетти) [2019, ужасы, BDRip-HEVC 1080p, (10 Bit)] DUB (rus, ukr) [iTunes] +MVO [HDRezka Studio] pibit.top

Оно 2 через торрент pibit.top

Раздают: 3 [ 126 KB/s ]
Размер: 8.85 GB | Добавлен: 13 д. назад | Торрент скачан:82 раза
Скачать  

01-12-2019 11:27 Оно 2 Скачать торрент  

Оно 2 / It Chapter Two
Год выпуска: 2019
Страна: Канада, США
Студия: KatzSmith Productions, Lin Pictures, New Line Cinema
Жанр: ужасы
Продолжительность: 02:49:25
Перевод:
#1: Дублированный | iTunes
#2: Профессиональный (многоголосый) | HDRezka Studio
Субтитры: Русские (Forced, 2 x full), украинские (Forced), английские

Режиссер: Андрес Мускетти

rating

В ролях:

Джессика Честейн (Beverly Marsh), Джеймс МакЭвой (Bill Denbrough), Билл Хейдер (Richie Tozier), Айзая Мустафа (Mike Hanlon), Джей Райан (Ben Hanscom), Джеймс Рэнсон (Eddie Kaspbrak), Энди Бин (Stanley Uris), Билл Скарсгард (Pennywise), Джейден Мартелл (Young Bill Denbrough), Уайатт Олефф (Young Stanley Uris), Джек Дилан Грейзер (Young Eddie Kaspbrak), Финн Вулфард (Young Richie Tozier)
Описание: Проходит 27 лет после первой встречи ребят с демоническим Пеннивайзом. Они уже выросли, и у каждого своя жизнь. Но неожиданно их спокойное существование нарушает странный телефонный звонок, который заставляет их вновь собраться вместе.

Качество: BDRip-HEVC 1080p
Формат: MKV

Видео: HEVC, 10 Bit, 1920x804, 5876 Kbit/s, 23.976 fps
Аудио#1: 48 kHz, AC3, 5.1, 384 Kbps | Дублированный | RUS |
Аудио#2: 48 kHz, AC3, 2.0, 192 Kbps | HDRezka Studio | RUS |
Аудио#3: 48 kHz, AC3, 5.1, 384 Kbps | Дублированный | UKR |
Аудио#4: 48 kHz, AC3, 5.1, 640 Kbps | Оригинал | ENG |
скриншот  скриншот  скриншот  скриншот  скриншот  

Общее
Уникальный идентификатор : 11403419713674473331718219008099518001 (0x89437FFF79485B60D562D5C7EA08631)
Полное имя : D:\It.Chapter.Two.2019.BDRip.1080p.HEVC.10bit.seleZen.mkv
Формат : Matroska
Версия формата : Version 4 / Version 2
Размер файла : 8,85 Гбайт
Продолжительность : 2 ч. 49 м.
Общий поток : 7479 Кбит/сек
Название фильма : It Chapter Two 2019 from селезень
Дата кодирования UTC 2019-12-01 11:01:37
Программа кодирования : mkvmerge v40.0.0 ('Old Town Road + Pony') 64-bit
Библиотека кодирования : libebml v1.3.9 + libmatroska v1.5.2

Видео
Идентификатор : 1
Формат : HEVC
Формат/Информация : High Efficiency Video Coding
Профиль формата : Main [email protected]@Main
Идентификатор кодека : V_MPEGH/ISO/HEVC
Продолжительность : 2 ч. 49 м.
Битрейт : 5876 Кбит/сек
Ширина : 1920 пикселей
Высота : 804 пикселя
Соотношение сторон : 2,40:1
Режим частоты кадров : Постоянный
Частота кадров : 23,976 (24000/1001) кадра/сек
Частота кадров в оригинале : 23,976 (23976/1000) кадра/сек
Цветовое пространство : YUV
Субдискретизация насыщенности : 4:2:0
Битовая глубина : 10 бит
Бит/(Пиксели*Кадры) : 0.155
Размер потока : 6,78 Гбайт (77%)
Заголовок : CHD
Библиотека кодирования : x265 3.1.2+1-76650bab70f9:[Windows][MSVC 1922][64 bit] 10bit
Настройки программы : cpuid=1111039 / frame-threads=5 / numa-pools=36,36 / wpp / no-pmode / no-pme / no-psnr / no-ssim / log-level=2 / input-csp=1 / input-res=1920x804 / interlace=0 / total-frames=0 / level-idc=0 / high-tier=1 / uhd-bd=0 / ref=6 / no-allow-non-conformance / repeat-headers / annexb / no-aud / no-hrd / info / hash=0 / no-temporal-layers / no-open-gop / min-keyint=23 / keyint=250 / gop-lookahead=0 / bframes=8 / b-adapt=2 / b-pyramid / bframe-bias=0 / rc-lookahead=24 / lookahead-slices=5 / scenecut=40 / radl=0 / no-splice / no-intra-refresh / ctu=64 / min-cu-size=8 / no-rect / no-amp / max-tu-size=32 / tu-inter-depth=1 / tu-intra-depth=1 / limit-tu=0 / rdoq-level=0 / dynamic-rd=0.00 / no-ssim-rd / signhide / no-tskip / nr-intra=0 / nr-inter=0 / no-constrained-intra / no-strong-intra-smoothing / max-merge=3 / limit-refs=1 / no-limit-modes / me=2 / subme=7 / merange=48 / temporal-mvp / weightp / weightb / no-analyze-src-pics / deblock=0:0 / sao / no-sao-non-deblock / rd=4 / early-skip / rskip / no-fast-intra / no-tskip-fast / no-cu-lossless / b-intra / no-splitrd-skip / rdpenalty=0 / psy-rd=2.00 / psy-rdoq=0.00 / no-rd-refine / no-lossless / cbqpoffs=0 / crqpoffs=0 / rc=crf / crf=16.0 / qcomp=0.60 / qpstep=4 / stats-write=0 / stats-read=0 / ipratio=1.40 / pbratio=1.30 / aq-mode=3 / aq-strength=1.00 / cutree / zone-count=0 / no-strict-cbr / qg-size=32 / no-rc-grain / qpmax=69 / qpmin=0 / no-const-vbv / sar=0 / overscan=0 / videoformat=5 / range=0 / colorprim=2 / transfer=2 / colormatrix=2 / chromaloc=0 / display-window=0cll=0,0 / min-luma=0 / max-luma=1023 / log2-max-poc-lsb=8 / vui-timing-info / vui-hrd-info / slices=1 / no-opt-qp-pps / no-opt-ref-list-length-pps / no-multi-pass-opt-rps / scenecut-bias=0.05 / no-opt-cu-delta-qp / aq-motion / no-hdr / no-hdr-opt / no-dhdr10-opt / no-idr-recovery-sei / analysis-reuse-level=5 / scale-factor=0 / refine-intra=0 / refine-inter=0 / refine-mv=0 / refine-ctu-distortion=0 / no-limit-sao / ctu-info=0 / no-lowpass-dct / refine-analysis-type=0 / copy-pic=1 / max-ausize-factor=1.0 / no-dynamic-refine / no-single-sei / no-hevc-aq / no-svt / no-field / qp-adaptation-range=1.00
Язык : English
Default : Да
Forced : Нет

Аудио #1
Идентификатор : 2
Формат : AC-3
Формат/Информация : Audio Coding 3
Расширение режима : CM (complete main)
Параметр Endianness формата : Big
Идентификатор кодека : A_AC3
Продолжительность : 2 ч. 49 м.
Вид битрейта : Постоянный
Битрейт : 384 Кбит/сек
Каналы : 6 каналов
Расположение каналов : Front: L C R, Side: L R, LFE
Частота : 48,0 КГц
Частота кадров : 31,250 кадров/сек (1536 spf)
Метод сжатия : С потерями
Размер потока : 465 Мбайт (5%)
Заголовок : Dub [iTunes]
Язык : Russian
Default : Да
Forced : Да

Аудио #2
Идентификатор : 3
Формат : AC-3
Формат/Информация : Audio Coding 3
Расширение режима : CM (complete main)
Параметр Endianness формата : Big
Идентификатор кодека : A_AC3
Продолжительность : 2 ч. 49 м.
Вид битрейта : Постоянный
Битрейт : 192 Кбит/сек
Каналы : 2 канала
Расположение каналов : Front: L R
Частота : 48,0 КГц
Частота кадров : 31,250 кадров/сек (1536 spf)
Метод сжатия : С потерями
Размер потока : 233 Мбайт (3%)
Заголовок : MVO [HDRezka Studio]
Язык : Russian
Default : Нет
Forced : Нет

Аудио #3
Идентификатор : 4
Формат : AC-3
Формат/Информация : Audio Coding 3
Расширение режима : CM (complete main)
Параметр Endianness формата : Big
Идентификатор кодека : A_AC3
Продолжительность : 2 ч. 49 м.
Вид битрейта : Постоянный
Битрейт : 384 Кбит/сек
Каналы : 6 каналов
Расположение каналов : Front: L C R, Side: L R, LFE
Частота : 48,0 КГц
Частота кадров : 31,250 кадров/сек (1536 spf)
Метод сжатия : С потерями
Размер потока : 465 Мбайт (5%)
Заголовок : Dub
Язык : Ukrainian
Default : Нет
Forced : Нет

Аудио #4
Идентификатор : 5
Формат : AC-3
Формат/Информация : Audio Coding 3
Расширение режима : CM (complete main)
Параметр Endianness формата : Big
Идентификатор кодека : A_AC3
Продолжительность : 2 ч. 49 м.
Вид битрейта : Постоянный
Битрейт : 640 Кбит/сек
Каналы : 6 каналов
Расположение каналов : Front: L C R, Side: L R, LFE
Частота : 48,0 КГц
Частота кадров : 31,250 кадров/сек (1536 spf)
Метод сжатия : С потерями
Размер потока : 776 Мбайт (9%)
Заголовок : Original
Язык : English
Default : Нет
Forced : Нет

Текст #1
Идентификатор : 6
Формат : UTF-8
Идентификатор кодека : S_TEXT/UTF8
Идентификатор кодека/Информация : UTF-8 Plain Text
Заголовок : Forced
Язык : Russian
Default : Да
Forced : Да

Текст #2
Идентификатор : 7
Формат : UTF-8
Идентификатор кодека : S_TEXT/UTF8
Идентификатор кодека/Информация : UTF-8 Plain Text
Заголовок : Full
Язык : Russian
Default : Нет
Forced : Нет

Текст #3
Идентификатор : 8
Формат : UTF-8
Идентификатор кодека : S_TEXT/UTF8
Идентификатор кодека/Информация : UTF-8 Plain Text
Заголовок : Full [FOCS]
Язык : Russian
Default : Нет
Forced : Нет

Текст #4
Идентификатор : 9
Формат : UTF-8
Идентификатор кодека : S_TEXT/UTF8
Идентификатор кодека/Информация : UTF-8 Plain Text
Заголовок : Forced
Язык : Ukrainian
Default : Нет
Forced : Нет

Текст #5
Идентификатор : 10
Формат : UTF-8
Идентификатор кодека : S_TEXT/UTF8
Идентификатор кодека/Информация : UTF-8 Plain Text
Заголовок : SDH
Язык : English
Default : Нет
Forced : Нет

Меню
00:00:00.000 : en:Chapter 01
00:09:10.341 : en:Chapter 02
00:19:06.354 : en:Chapter 03
00:27:00.744 : en:Chapter 04
00:37:51.227 : en:Chapter 05
00:46:19.986 : en:Chapter 06
00:55:46.802 : en:Chapter 07
01:05:36.474 : en:Chapter 08
01:17:19.134 : en:Chapter 09
01:29:21.565 : en:Chapter 10
01:41:02.974 : en:Chapter 11
01:49:11.336 : en:Chapter 12
01:59:33.833 : en:Chapter 13
02:05:31.774 : en:Chapter 14
02:14:25.933 : en:Chapter 15
02:22:43.889 : en:Chapter 16
02:32:57.168 : en:Chapter 17
02:42:15.643 : en:Chapter 18
02:44:52.508 : en:Chapter 19

pibit.top



Скачать Оно 2 через торрент https://a.radikal.ru/a29/1911/fe/9cb2ca5ba608.jpg Скачать фильм Оно 2 через торрент бесплантно в хорошем качестве Описание: Проходит 27 лет после первой встречи ребят с демоническим Пеннивайзом. Они уже выросли, и у каждого своя жизнь. Но неожиданно их ... 10 10 3
Торрент: Зарегистрирован [2019-12-01 11:27] · скачан: 82 раз
Статус: √ проверено
Размер: 8.85 GB
Как cкачать? Как скачать Оно 2 через торрент | qTorrent

% Раздел Тема Автор DL S | L
Ultra HD (UHD: 2K, 4K, 8K) — видео сверхвысокой чёткости [ 74.06 GB ] Оно 2 / It Chapter Two [2019 UHD BDRemux 2160p] [Dolby Vision] DUB + MVO [HDRezka Studio] sheker187 Скачать
1 | 1
Ultra HD (UHD: 2K, 4K, 8K) — видео сверхвысокой чёткости [ 63.98 GB ] Оно 2 / It Chapter Two [2019 UHD BDRemux 2160p] [Dolby Vision TV] bober100 Скачать
2 | 0
Фильмы 2019 [DVDrip, WEB-DLRip, HDrip] (DUB, MVO) [ 1.46 GB ] Оно 2 / It Chapter Two [2019 BDRip] - Twi7ter Скачать
198 | 19
Фильмы [HD 720p, 1080p] (Хороший звук DUB, MVO) [ 3.77 GB ] Оно 2 / It Chapter Two [2019 BDRip 1080p HEVC ] Мичман37 Скачать
5 | 0
Фильмы 2019 [DVDrip, WEB-DLRip, HDrip] (DUB, MVO) [ 2.18 GB ] Оно 2 / It Chapter Two [2019 BDRip] - Twi7ter Скачать
47 | 2
Фильмы 2019 [DVDrip, WEB-DLRip, HDrip] (DUB, MVO) [ 3.27 GB ] Оно 2 / It Chapter Two [2019 WEB-DLRip-AVC] Dub MVO [HDRezka Studio] - ExKinoRay Enigma2010 Скачать
150 | 1
Ultra HD (UHD: 2K, 4K, 8K) — видео сверхвысокой чёткости [ 24.16 GB ] Оно 2 / It Chapter Two [2019 UHD BDRip 2160p] DUB +MVO [HDRezka Studio] bober100 Скачать
1 | 0

28-11-2019 20:33  

Отключить всю рекламу на сайте

    Дорогой пользователь! Огромная просьба, поблагодарите релизера, оцените раздачу и оставьте свои комментарий, если Вы скачали Оно 2 через торрент бесплатно! Внесите свою лепту в развитие PiratBit!
    Комментировать посты могут только пользователи прошедшие не сложную регистрацию
    Показать сообщения:    

    Оно 2 через торрент
    Скачать бесплатно Оно 2
    Оно 2 скачать торрент
    Оно 2 смотреть онлайн
    Cкачать фильм Оно 2 бесплатно
    Оно 2 скачать торрент в хорошем качестве
    Оно 2 смотреть онлайн бесплатно в хорошем качестве


    Вы не можете начинать темы
    Вы не можете отвечать на сообщения
    Вы не можете редактировать свои сообщения
    Вы не можете удалять свои сообщения
    Вы не можете голосовать в опросах
    Вы не можете прикреплять файлы к сообщениям
    Вы можете скачивать файлы