новый адрес
Ссылка на приватное зеркало всего за 1$. Внимание количество ограничено!!!

iTunes

1+1

iTunes

мы

WEB-DL

1

iTunes

Чернобыль

iTunes

Ральф против интернета

Лицензия

ПШазам

Лицензия

Оно 2

Лицензия

30
pack

Вам бонус

ВАЖНО

!!Акция!!

Alien_RageХит недели

RePack

Resident Evil 21

ИГРА 18+

pack

RePack

jed

!!Акция!!

Alien_Rage

RePack

fifa19

RePack

Assassins Creed: Odyssey

RePack

NEED FOR SPEED™ PAYBACK

3 сезон

9 сезон

Бесстыжие 9 сезон

Все сериалы

все сериалы на PB.wtf

RePack

FAR CRY 5
Ребята, катастрофически не хватает 1900р. для оплаты серверов за Октябрь (всвязи с блокировками трафик упал в 3 раза), 1-2р., выручайте.
  

Коллайдер / Collider (Джастин Льюис) [2018, фантастика, боевик, WEB-DL 1080p] MVO [IVI] pibit.top

Коллайдер через торрент pibit.top

Раздают: 6 [ 0 KB/s ]
Размер: 6.97 GB | Добавлен: 8 д. назад | Торрент скачан:68 раз
Скачать  

02-12-2019 18:30 Коллайдер Скачать торрент  

Коллайдер / Collider
Год выпуска: 2018
Страна: США
Жанр: фантастика, боевик
Продолжительность: 01:24:18
Перевод: Профессиональный (многоголосый) | IVI
Субтитры: English

Режиссер: Джастин Льюис

rating


В ролях:

Кристин Масколо (Maya), Джуд Моран (Barry), Michael Vasicek (John), Коннер Гринхалг (Tyler), Elena Rose Davis (Angelica), Хит С. Хейн (Leo), Matt Meibauer (Conner), Дуайт Брасвелл (Roger), Jaclyn Gest (Emma), Alex Campbell (Dylan), Michael Gonzales (Danny), Taylor Poyfair (Emily)
Описание: 2033 год. Молодая девушка находится в таинственном приюте. Решив бросить вызов судьбе она отправляется в прошлое, чтобы найти своих родителей и изменить исход событий.

Качество: WEB-DL 1080p
Формат: MKV

Видео: MPEG-4 AVC, 10.9 Mb/s, 1920x800
Аудио#1: Russian: AC3, 2 ch, 256 Kb/s
Аудио#2: English: Е-AC3, 6 ch, 640 Kb/s
скриншот  скриншот  скриншот  скриншот  скриншот  

General
Unique ID : 95804694253511763013688153667585660659 (0x4813501D54FB63FD4A37B9E2894756F3)
Complete name : G:\Collider.2018.AMZN.WEB-DL.1080p.mkv
Format : Matroska
Format version : Version 4 / Version 2
File size : 6.97 GiB
Duration : 1 h 24 min
Overall bit rate : 11.8 Mb/s
Encoded date : UTC 2019-11-28 00:40:09
Writing application : mkvmerge v20.0.0 ('I Am The Sun') 64-bit
Writing library : libebml v1.3.5 + libmatroska v1.4.8

Video
ID : 1
Format : AVC
Format/Info : Advanced Video Codec
Format profile : [email protected]
Format settings : CABAC / 4 Ref Frames
Format settings, CABAC : Yes
Format settings, RefFrames : 4 frames
Codec ID : V_MPEG4/ISO/AVC
Duration : 1 h 24 min
Bit rate : 10.9 Mb/s
Width : 1 920 pixels
Height : 800 pixels
Display aspect ratio : 2.40:1
Frame rate mode : Constant
Frame rate : 23.976 (24000/1001) FPS
Color space : YUV
Chroma subsampling : 4:2:0
Bit depth : 8 bits
Scan type : Progressive
Bits/(Pixel*Frame) : 0.297
Stream size : 6.44 GiB (92%)
Language : English
Default : Yes
Forced : No
Color range : Limited
Color primaries : BT.709
Transfer characteristics : BT.709
Matrix coefficients : BT.709

Audio #1
ID : 2
Format : AC-3
Format/Info : Audio Coding 3
Codec ID : A_AC3
Duration : 1 h 24 min
Bit rate mode : Constant
Bit rate : 256 kb/s
Channel(s) : 2 channels
Channel positions : Front: L R
Sampling rate : 48.0 kHz
Frame rate : 31.250 FPS (1536 SPF)
Bit depth : 16 bits
Compression mode : Lossy
Stream size : 154 MiB (2%)
Title : MVO
Language : Russian
Service kind : Complete Main
Default : Yes
Forced : No

Audio #2
ID : 3
Format : E-AC-3
Format/Info : Enhanced Audio Coding 3
Codec ID : A_EAC3
Duration : 1 h 24 min
Bit rate mode : Constant
Bit rate : 640 kb/s
Channel(s) : 6 channels
Channel positions : Front: L C R, Side: L R, LFE
Sampling rate : 48.0 kHz
Frame rate : 187.500 FPS (256 SPF)
Compression mode : Lossy
Stream size : 386 MiB (5%)
Language : English
Service kind : Complete Main
Default : No
Forced : No

Text
ID : 4
Format : UTF-8
Codec ID : S_TEXT/UTF8
Codec ID/Info : UTF-8 Plain Text
Duration : 1 h 19 min
Bit rate : 44 b/s
Count of elements : 880
Stream size : 25.7 KiB (0%)
Language : English
Default : No
Forced : No

pibit.top



Скачать Коллайдер через торрент https://b.radikal.ru/b05/1912/07/6b7a6785e3f4.png Скачать фильм Коллайдер через торрент бесплантно в хорошем качестве Описание: 2033 год. Молодая девушка находится в таинственном приюте. Решив бросить вызов судьбе она отправляется в прошлое, чтобы найти ... 8.2 10 5
Торрент: Зарегистрирован [2019-12-02 18:30] · скачан: 68 раз
Статус: √ проверено
Размер: 6.97 GB
Как cкачать? Как скачать Коллайдер через торрент | qTorrent

28-11-2019 20:33  

Отключить всю рекламу на сайте

02-12-2019 19:21 Коллайдер Скачать торрент  

андроидный? судя по рейтингу в 3,6.pibit.top



02-12-2019 21:13 Коллайдер Скачать торрент  

Demon83666 писал(а):

андроидный? судя по рейтингу в 3,6.

конечно же андронный! там же не дураки сидят! pibit.top



    Дорогой пользователь! Огромная просьба, поблагодарите релизера, оцените раздачу и оставьте свои комментарий, если Вы скачали Коллайдер через торрент бесплатно! Внесите свою лепту в развитие PiratBit!
    Комментировать посты могут только пользователи прошедшие не сложную регистрацию
    Показать сообщения:    

    Коллайдер через торрент
    Скачать бесплатно Коллайдер
    Коллайдер скачать торрент
    Коллайдер смотреть онлайн
    Cкачать фильм Коллайдер бесплатно
    Коллайдер скачать торрент в хорошем качестве
    Коллайдер смотреть онлайн бесплатно в хорошем качестве


    Вы не можете начинать темы
    Вы не можете отвечать на сообщения
    Вы не можете редактировать свои сообщения
    Вы не можете удалять свои сообщения
    Вы не можете голосовать в опросах
    Вы не можете прикреплять файлы к сообщениям
    Вы можете скачивать файлы