новый адрес
Ссылка на приватное зеркало всего за 1$. Внимание количество ограничено!!!

iTunes

1+1

iTunes

мы

WEB-DL

1

iTunes

Чернобыль

iTunes

Ральф против интернета

Лицензия

ПШазам

Лицензия

Оно 2

Лицензия

30
pack

Вам бонус

ВАЖНО

!!Акция!!

Alien_RageХит недели

RePack

Resident Evil 21

ИГРА 18+

pack

RePack

jed

!!Акция!!

Alien_Rage

RePack

fifa19

RePack

Assassins Creed: Odyssey

RePack

NEED FOR SPEED™ PAYBACK

3 сезон

9 сезон

Бесстыжие 9 сезон

Все сериалы

все сериалы на PB.wtf

RePack

FAR CRY 5
Ребята, катастрофически не хватает 1900р. для оплаты серверов за Октябрь (всвязи с блокировками трафик упал в 3 раза), 1-2р., выручайте.
  

Отрыв (Тигран Саакян) [2019 г., триллер, HDRip, Не требуется Русский] pibit.top

Отрыв через торрент pibit.top

Раздают: 1 [ 0 KB/s ]
Размер: 707 MB | Добавлен: 9 д. назад | Торрент скачан:23 раза
Скачать  

02-12-2019 18:41 Отрыв Скачать торрент  

Отрыв
Год выпуска: 2019
Страна: Россия / Аттракцион. Кинокомпания CTB
Жанр: триллер
Продолжительность: 01:25:08
Перевод: Не требуется Русский

Режиссер: Тигран Саакян

rating

В ролях: Ирина Антоненко, Андрей Назимов, Денис Косяков, Ингрид Олеринская, Михаил Филиппов, Сергей Тодоров, Владимир Гусев, Елена Ветрова, Виктория Пятакина, Ангелина Пиковская

Описание: Компания друзей поднимается в горы, чтобы незабываемо встретить новогоднюю ночь на вершине горы. Ребята уже предвкушают, как под бой курантов и взрывы салютов они весело съедут вниз. Но приключение оборачивается настоящим кошмаром, когда в самый разгар праздника хлипкий вагончик, привёзший их ввысь, застревает над пропастью.

Качество: HDRip
Формат: AVI
Видео кодек: DivX
Аудио кодек: MP3
Видео: 640x240 (2.67:1), 24.000 fps, DivX Codec 4.x ~1022 kbps avg, 0.28 bit/pixel
Аудио: 48 kHz, MPEG Layer 3, 2 ch, ~128.00 kbps avg
скриншот   скриншот   скриншот   скриншот  

Общее
Полное имя : F:\ФИЛЬМЫ\Отрыв.2019.HDRip.avi
Формат : AVI
Формат/Информация : Audio Video Interleave
Размер файла : 707 Мбайт
Продолжительность : 1 ч. 25 м.
Общий поток : 1160 Кбит/сек
Программа кодирования : VirtualDubMod 1.5.10.3 | www.virtualdub-fr.org || (build 2550/release)
Библиотека кодирования : VirtualDubMod build 2550/release

Видео
Идентификатор : 0
Формат : MPEG-4 Visual
Профиль формата : Advanced [email protected]
Настройки формата : BVOP3 / GMC3 / QPel
Параметр BVOP формата : 3
Параметр QPel формата : Да
Параметр GMC формата : 3 точки перехода
Параметр матрицы формата : Default (MPEG)
Идентификатор кодека : DIVX
Идентификатор кодека/Информация : Project Mayo
Идентификатор кодека/Подсказка : DivX 4
Продолжительность : 1 ч. 25 м.
Битрейт : 1023 Кбит/сек
Ширина : 640 пикселей
Высота : 240 пикселей
Соотношение сторон : 2,667
Частота кадров : 24,000 кадра/сек
Цветовое пространство : YUV
Субдискретизация насыщенности : 4:2:0
Битовая глубина : 8 бит
Тип развёртки : Прогрессивная
Метод сжатия : С потерями
Бит/(Пиксели*Кадры) : 0.278
Размер потока : 623 Мбайт (88%)
Библиотека кодирования : XviD 1.2.1 (UTC 2008-12-04)

Аудио
Идентификатор : 1
Формат : MPEG Audio
Версия формата : Version 1
Профиль формата : Layer 3
Настройки формата : Joint stereo
Идентификатор кодека : 55
Идентификатор кодека/Подсказка : MP3
Продолжительность : 1 ч. 25 м.
Вид битрейта : Постоянный
Битрейт : 128 Кбит/сек
Каналы : 2 канала
Частота : 48,0 КГц
Частота кадров : 41,667 кадра/сек (1152 SPF)
Метод сжатия : С потерями
Размер потока : 78,0 Мбайт (11%)
Выравнивание : Соединение по промежуткам
Продолжительность промежутка : 42 мс. (1,00 видеокадр)
Время предзагрузки промежутка : 504 мс.
Библиотека кодирования : LAME3.99r
Настройки программы : -m j -V 4 -q 2 -lowpass 17 -b 128

pibit.top



Скачать Отрыв через торрент http://pic1.kartinco.top/images/12/rrpam.jpg Скачать фильм Отрыв через торрент бесплантно в хорошем качестве Описание: Компания друзей поднимается в горы, чтобы незабываемо встретить новогоднюю ночь на вершине горы. Ребята уже предвкушают, как под ... 10 10 1
Торрент: Зарегистрирован [2019-12-02 18:41] · скачан: 23 раз
Статус: √ проверено
Размер: 707 MB
Как cкачать? Как скачать Отрыв через торрент | qTorrent

% Раздел Тема Автор DL S | L
Документальные фильмы и телепередачи [ 465 MB ] Легенды Крыма. Призраки катакомб. [2015 Документальный военный DVB Русский] кэп Скачать
1 | 0
Фильмы 2018 [DVDrip, WEB-DLRip, HDrip] (DUB, MVO) [ 1.37 GB ] Точка отрыва / Action Point [2018 HDRip] DUB [] bober100 Скачать
6 | 0
Фильмы (Blu-ray, BD-Remux, HDDVD) [ 21.13 GB ] Точка отрыва / Action Point [2018 BDRemux 1080p] DUB [] -Lexx- Скачать
1 | 0
Отечественная Поп музыка (сборники) (mp3) [ 737 MB ] VA - Русский новогодний отрыв 2017 / MP3 / 256 kbps / Поп oleg8 Скачать
1 | 0
Отечественная Поп музыка (сборники) (mp3) [ 676 MB ] VA - Хитовый отрыв 11 2017 / MP3 / 256 kbps / Поп bober100 Скачать
1 | 0
Отечественная Поп музыка (сборники) (mp3) [ 676 MB ] VA - Хитовый отрыв 10 2017 / MP3 / 256 kbps / Поп bober100 Скачать
1 | 0
Отечественная Поп музыка (сборники) (mp3) [ 679 MB ] VA - Хитовый отрыв 9 2017 / MP3 / 256 kbps / Поп bober100 Скачать
1 | 0

28-11-2019 20:33  

Отключить всю рекламу на сайте

04-12-2019 00:35 Отрыв Скачать торрент  

по третьему скрину всё понятно)))pibit.top



    Дорогой пользователь! Огромная просьба, поблагодарите релизера, оцените раздачу и оставьте свои комментарий, если Вы скачали Отрыв через торрент бесплатно! Внесите свою лепту в развитие PiratBit!
    Комментировать посты могут только пользователи прошедшие не сложную регистрацию
    Показать сообщения:    

    Отрыв через торрент
    Скачать бесплатно Отрыв
    Отрыв скачать торрент
    Отрыв смотреть онлайн
    Cкачать фильм Отрыв бесплатно
    Отрыв скачать торрент в хорошем качестве
    Отрыв смотреть онлайн бесплатно в хорошем качестве


    Вы не можете начинать темы
    Вы не можете отвечать на сообщения
    Вы не можете редактировать свои сообщения
    Вы не можете удалять свои сообщения
    Вы не можете голосовать в опросах
    Вы не можете прикреплять файлы к сообщениям
    Вы можете скачивать файлы