Ссылка на приватное зеркало всего за 1$. Внимание количество ограничено!!!

iTunes

1+1

iTunes

мы

MV0

1

WEB-DLRip

Джокер

Пифагор

Ведьмак / The Witcher сериал

iTunes

ПШазам

iTunes

Оно 2

iTunes

30
pack

Вам бонус

ВАЖНО

!!Акция!!

Alien_RageХит недели

RePack

Resident Evil 21

ИГРА 18+

pack

RePack

jed

!!Акция!!

Alien_Rage

RePack

fifa19

RePack

Assassins Creed: Odyssey

RePack

NEED FOR SPEED™ PAYBACK

4 сезон

9 сезон

Бесстыжие 9 сезон

Все сериалы

все сериалы на PB.wtf

RePack

FAR CRY 5
  

Мед в голове / Head Full of Honey (Тиль Швайгер) [2018, драма, комедия, BDRip 1080p] DUB [iTunes] pibit.top

Мед в голове через торрент pibit.top

Раздают: 3 [ 175 KB/s ]
Размер: 9.9 GB | Добавлен: 16 д. назад | Торрент скачан:46 раз
Скачать  

05-12-2019 19:09 Мед в голове Скачать торрент  

Мед в голове | Head Full of Honey
Год выпуска: 2018
Страна: Германия, США
Жанр: драма, комедия
Продолжительность: 02:11:51
Перевод: Дублированный | iTunes + субтитры на непереведенные места ~ 5 мин
Субтитры: русские (форс. вшитые)

Режиссер: Тиль Швайгер

rating

В ролях: Ник Нолти, Мэтт Диллон, Эмили Мортимер, Софи Лане, Жаклин Биссет, Эрик Робертс, Грета Скакки, Джулиан Овенден, Джейк Уэбер, Тиль Швайгер и др.

Описание: Ремейк одноименной картины 2014 года. История о старике Амандусе, который из-за болезни Альцгеймера становится героем и виновником разнообразных неурядиц, доставляя массу хлопот своим домочадцам. Наконец, его любящая внучка узнает, что родители намерены отправить Амандуса в дом престарелых. Опечаленная таким решением девочка сбегает вместе с больным дедом в Венецию, где он когда-то провел счастливейшие дни своей молодости.

Качество: BDRip 1080p
Формат: MKV

Видео: MPEG-4 AVC, 1920x804, 9924 kbps, 23,976 fps
Аудио#1: русский, AC3, 5.1 ch, 48 kHz, 384 kbps | iTunes + вставки оригинала ~ 5 мин
Аудио#2: английский, AC3, 5.1 ch, 48 kHz, 448 kbps | Оригинал
скриншот  скриншот  скриншот  скриншот  скриншот  

Общее
Уникальный идентификатор : 229581237902496752134139573508301298295 (0xACB7BCF274D5A350AB080085FAB29A77)
Полное имя : G:Torrent2MedVGoloveBDRip1080p.mkv
Формат : Matroska
Версия формата : Version 4 / Version 2
Размер файла : 9,90 Гбайт
Продолжительность : 2 ч. 11 м.
Общий поток : 10,7 Мбит/сек
Дата кодирования : UTC 2020-02-11 18:23:53
Программа кодирования : mkvmerge v9.5.0 ('Quiet Fire') 64bit
Библиотека кодирования : libebml v1.3.4 + libmatroska v1.4.5

Видео
Идентификатор : 1
Формат : AVC
Формат/Информация : Advanced Video Codec
Профиль формата : [email protected]
Настройки формата : CABAC / 5 Ref Frames
Параметр CABAC формата : Да
Параметр RefFrames формата : 5 кадров
Идентификатор кодека : V_MPEG4/ISO/AVC
Продолжительность : 2 ч. 11 м.
Битрейт : 9924 Кбит/сек
Ширина : 1920 пикселей
Высота : 804 пикселя
Соотношение сторон : 2,40:1
Режим частоты кадров : Постоянный
Частота кадров : 23,976 (23976/1000) кадра/сек
Цветовое пространство : YUV
Субдискретизация насыщенности : 4:2:0
Битовая глубина : 8 бит
Тип развёртки : Прогрессивная
Бит/(Пиксели*Кадры) : 0.268
Размер потока : 9,13 Гбайт (92%)
Заголовок : Sisendrovich(R)
Библиотека кодирования : x264 core 159 r2991 1771b55
Настройки программы : cabac=1 / ref=5 / deblock=1:-1:-1 / analyse=0x3:0x133 / me=tesa / subme=11 / psy=1 / psy_rd=1.00:0.00 / mixed_ref=1 / me_range=32 / chroma_me=1 / trellis=2 / 8x8dct=1 / cqm=0 / deadzone=21,11 / fast_pskip=0 / chroma_qp_offset=-2 / threads=24 / lookahead_threads=6 / sliced_threads=0 / nr=0 / decimate=0 / interlaced=0 / bluray_compat=0 / constrained_intra=0 / bframes=10 / b_pyramid=2 / b_adapt=2 / b_bias=0 / direct=3 / weightb=1 / open_gop=0 / weightp=2 / keyint=240 / keyint_min=23 / scenecut=40 / intra_refresh=0 / rc_lookahead=60 / rc=2pass / mbtree=0 / bitrate=9924 / ratetol=1.0 / qcomp=0.70 / qpmin=0 / qpmax=69 / qpstep=4 / cplxblur=20.0 / qblur=0.5 / vbv_maxrate=50000 / vbv_bufsize=62500 / nal_hrd=none / filler=0 / ip_ratio=1.40 / pb_ratio=1.30 / aq=3:0.90
Язык : English
Default : Да
Forced : Нет

Аудио #1
Идентификатор : 2
Формат : AC-3
Формат/Информация : Audio Coding 3
Параметр Endianness формата : Big
Идентификатор кодека : A_AC3
Продолжительность : 2 ч. 11 м.
Вид битрейта : Постоянный
Битрейт : 384 Кбит/сек
Каналы : 6 каналов
Расположение каналов : Front: L C R, Side: L R, LFE
Частота : 48,0 КГц
Частота кадров : 31,250 кадров/сек (1536 SPF)
Битовая глубина : 16 бит
Метод сжатия : С потерями
Размер потока : 362 Мбайт (4%)
Заголовок : rus
Язык : Russian
Default : Да
Forced : Нет

Аудио #2
Идентификатор : 3
Формат : AC-3
Формат/Информация : Audio Coding 3
Параметр Endianness формата : Big
Идентификатор кодека : A_AC3
Продолжительность : 2 ч. 11 м.
Вид битрейта : Постоянный
Битрейт : 448 Кбит/сек
Каналы : 6 каналов
Расположение каналов : Front: L C R, Side: L R, LFE
Частота : 48,0 КГц
Частота кадров : 31,250 кадров/сек (1536 SPF)
Битовая глубина : 16 бит
Метод сжатия : С потерями
Размер потока : 423 Мбайт (4%)
Заголовок : eng
Язык : English
Default : Нет
Forced : Нет

Меню
00:00:00.000 : en:Chapter 1
00:08:39.978 : en:Chapter 2
00:17:41.978 : en:Chapter 3
00:29:21.093 : en:Chapter 4
00:36:42.367 : en:Chapter 5
00:51:57.990 : en:Chapter 6
01:01:18.633 : en:Chapter 7
01:11:59.524 : en:Chapter 8
01:23:10.819 : en:Chapter 9
01:37:06.779 : en:Chapter 10
01:47:00.956 : en:Chapter 11
01:56:36.448 : en:Chapter 12

pibit.top



Скачать Мед в голове через торрент http://lostpix.com/thumbs/2019-12/21/cl3nhm3tysj2j09g3cdkm9olu.png Скачать фильм Мед в голове через торрент бесплантно в хорошем качестве Описание: Ремейк одноименной картины 2014 года. История о старике Амандусе, который из-за болезни Альцгеймера становится героем и ... 9.5 10 8
Торрент: Зарегистрирован [2020-02-12 16:31] · скачан: 46 раз
Статус: √ проверено
Размер: 9.9 GB
Как cкачать? Как скачать Мед в голове через торрент | qTorrent

% Раздел Тема Автор DL S | L
Фильмы 2018 [DVDrip, WEB-DLRip, HDrip] (DUB, MVO) [ 1.45 GB ] Мед в голове / Head Full of Honey [2018 BDRip] bober100 Скачать
9 | 0
Фильмы [HD 720p, 1080p] (Хороший звук DUB, MVO) [ 5.14 GB ] Мед в голове / Head Full of Honey [2018 BDRip 720p] bober100 Скачать
3 | 0
T Фильмы (мультфильмы) cо спонсором показа (Новинки AVI/MKV) [ 2.05 GB ] Мед в голове / Head Full of Honey [2018 WEB-DLRip] MVO [@[email protected]] bober100 Скачать
2 | 0

28-11-2019 20:33  

Отключить всю рекламу на сайте

    Дорогой пользователь! Огромная просьба, поблагодарите релизера, оцените раздачу и оставьте свои комментарий, если Вы скачали Мед в голове через торрент бесплатно! Внесите свою лепту в развитие PiratBit!
    Комментировать посты могут только пользователи прошедшие не сложную регистрацию
    Показать сообщения:    

    Мед в голове через торрент
    Скачать бесплатно Мед в голове
    Мед в голове скачать торрент
    Мед в голове смотреть онлайн
    Cкачать фильм Мед в голове бесплатно
    Мед в голове скачать торрент в хорошем качестве
    Мед в голове смотреть онлайн бесплатно в хорошем качестве


    Вы не можете начинать темы
    Вы не можете отвечать на сообщения
    Вы не можете редактировать свои сообщения
    Вы не можете удалять свои сообщения
    Вы не можете голосовать в опросах
    Вы не можете прикреплять файлы к сообщениям
    Вы можете скачивать файлы