Ссылка на приватное зеркало всего за 1$. Внимание количество ограничено!!!

iTunes

1+1

iTunes

мы

MV0

1

WEB-DLRip

Джокер

Пифагор

Ведьмак / The Witcher сериал

iTunes

ПШазам

iTunes

Оно 2

iTunes

30
pack

Вам бонус

ВАЖНО

!!Акция!!

Alien_RageХит недели

RePack

Resident Evil 21

ИГРА 18+

pack

RePack

jed

!!Акция!!

Alien_Rage

RePack

fifa19

RePack

Assassins Creed: Odyssey

RePack

NEED FOR SPEED™ PAYBACK

4 сезон

9 сезон

Бесстыжие 9 сезон

Все сериалы

все сериалы на PB.wtf

RePack

FAR CRY 5
  

Ведьмак / The Witcher / Сезон: 1 / Серии: 1-8 из 8 (Алик Сахаров) [2019, фэнтези, боевик, драма, приключения, WEB-DLRip] MVO [Lostfilm] pibit.top

Ведьмак через торрент pibit.top

Раздают: 1 [ 2 KB/s ] Качают: 1 [ 0 KB/s ]
Размер: 6.97 GB | Добавлен: 1 мес. 7 д. назад | Торрент скачан:79 раз
Скачать  

23-12-2019 06:29 Ведьмак Скачать торрент  

Ведьмак | The Witcher«The Worst Monsters Are the Ones We Create»
Год выпуска: 2019
Страна: Польша, США
Жанр: фэнтези, боевик, драма, приключения
Продолжительность: 01:00:00
Перевод: Профессиональный (многоголосый закадровый) | LostFilm
Субтитры: Русские (Force, Full), Английские (Netflix) - отдельно

Режиссер: Алик Сахаров, Шарлотта Брандстром, Алекс Гарсиа Лопес

rating


В ролях: Генри Кавилл, Фрейя Аллан, Джои Бэти, МайАнна Бёринг, Том Кэнтон, Аня Чалотра, Имон Фэррен, Бьерн Хлинур Харальдссон, Адам Леви, Джоди Мэй

Описание: Ведьмак Геральт, мутант и убийца чудовищ, изо всех сил старается найти свое место в мире, где люди часто оказываются намного хуже монстров.

Качество: WEB-DLRip
Формат: AVI

Видео: 704x352 (2.00:1), 24.000 fps, XviD build 73 ~1698 kbps avg, 0.29 bit/pixel
Аудио#1: 48 kHz, AC3 Dolby Digital, 2/0 (L,R) ch, ~192.00 kbps avg | RUS | Lostfilm
Аудио#2: 48 kHz, AC3 Dolby Digital, 2/0 (L,R) ch, ~192.00 kbps avg | ENG | Original
скриншот  скриншот  скриншот  скриншот  

General
Complete name: D:OlLanDGroupThe.Witcher.S01.WEB-DLRip.Lostfilm.OlLanDGroupThe.Witcher.S01.E01.WEB-DLRip.Lostfilm.OlLanDGroup.avi
Format: AVI
Format/Info: Audio Video Interleave
File size: 916 MiB
Duration: 1 h 1 min
Overall bit rate: 2 097 kb/s
Writing application: VirtualDubMod 1.5.10.2 (build 2540/release)
Writing library: VirtualDubMod build 2540/release

Video
ID: 0
Format: MPEG-4 Visual
Format profile: Advanced [email protected]
Format settings: BVOP1
Format settings, BVOP: 1
Format settings, QPel: No
Format settings, GMC: No warppoints
Format settings, Matrix: Default (MPEG)
Codec ID: XVID
Codec ID/Hint: XviD
Duration: 1 h 1 min
Bit rate: 1 699 kb/s
Width: 704 pixels
Height: 352 pixels
Display aspect ratio: 2.000
Frame rate: 24.000 FPS
Color space: YUV
Chroma subsampling: 4:2:0
Bit depth: 8 bits
Scan type: Progressive
Compression mode: Lossy
Bits/(Pixel*Frame): 0.286
Stream size: 742 MiB (81%)
Writing library: XviD 73

Audio #1
ID: 1
Format: AC-3
Format/Info: Audio Coding 3
Commercial name: Dolby Digital
Codec ID: 2000
Duration: 1 h 1 min
Bit rate mode: Constant
Bit rate: 192 kb/s
Channel(s): 2 channels
Channel layout: L R
Sampling rate: 48.0 kHz
Frame rate: 31.250 FPS (1536 SPF)
Bit depth: 16 bits
Compression mode: Lossy
Stream size: 83.9 MiB (9%)
Alignment: Split accross interleaves
Interleave, duration: 42 ms (1.00 video frame)
Interleave, preload duration: 500 ms
Service kind: Complete Main

Audio #2
ID: 2
Format: AC-3
Format/Info: Audio Coding 3
Commercial name: Dolby Digital
Codec ID: 2000
Duration: 1 h 1 min
Bit rate mode: Constant
Bit rate: 192 kb/s
Channel(s): 2 channels
Channel layout: L R
Sampling rate: 48.0 kHz
Frame rate: 31.250 FPS (1536 SPF)
Bit depth: 16 bits
Compression mode: Lossy
Stream size: 83.9 MiB (9%)
Alignment: Split accross interleaves
Interleave, duration: 42 ms (1.00 video frame)
Interleave, preload duration: 500 ms
Service kind: Complete Main

Внимание! Раздача ведётся путём добавления новых серий; при каждом добавлении создfётся новый торрент. Чтобы начать докачку новой серии, пользователям необходимо сделать следующее: (1) остановить скачивание, (2) удалить старый торрент у себя из клиента (старые серии удалять не надо), (3) скачать новый торрент и запустить его у себя в клиенте вместо старого, при этом указать клиенту путь в старую папку куда и должно происходить скачивание новых серий.

Ваш клиент при этом должен произвести хеширование (проверку) старой папки (если не производит сам - помогите ему сделать это), и будет докачивать только те серии которых у вас ещё нет. Старые серии при этом не удаляются, а продолжают раздаваться!

Eсли вы уже удалили старые серии, то предотвратить повторную закачку старых серий можно, отжав галочку в соответсвующих местах при запуске нового торрента.
pibit.top



Скачать Ведьмак через торрент https://i4.imageban.ru/out/2019/12/22/a169df59c22417badc6cc9f01631f3f2.png Скачать фильм Ведьмак через торрент бесплантно в хорошем качестве Описание: Ведьмак Геральт, мутант и убийца чудовищ, изо всех сил старается найти свое место в мире, где люди часто оказываются намного хуже ... 10 10 5
Торрент: Зарегистрирован [2020-01-20 09:27] · скачан: 79 раз
Статус: √ проверено
Размер: 6.97 GB
Как cкачать? Как скачать Ведьмак через торрент | qTorrent

% Раздел Тема Автор DL S | L
Зарубежные сериалы [ 10.48 GB ] Ведьмак / The Witcher / Сезон: 1 / Серии: 1-8 из 8 [2019 WEB-DLRip] [DVO] killermax2013 Скачать
4 | 0
Зарубежные сериалы [ 22.3 GB ] Ведьмак / The Witcher / Сезон: 1 / Серии: 1-8 из 8 [2019 WEB-DL 720p] MVO [LostFilm] bober100 Скачать
2 | 1
R.G.Resident - Сериалы, Видео [ 2.15 GB ] Ведьмак / The Witcher / Сезон: 1 / Серии: 1-8 из 8 [2019 WEB-DLRip | КПК ] Dub Cтрана Скачать
4 | 0
Зарубежные сериалы [ 24.45 GB ] Ведьмак / The Witcher / Сезон: 1 / Серии: 1-8 из 8 [2019 WEB-DL 1080p] DUB [Пифагор / Netflix] bober100 Скачать
42 | 2
Зарубежные сериалы [ 8.22 GB ] Ведьмак / The Witcher / Сезон: 1 / Серии: 1-8 из 8 [2019 WEB-DLRip] - [Пифагор / Netflix] Twi7ter Скачать
424 | 56
Зарубежные сериалы [ 27.58 GB ] Ведьмак / The Witcher / Сезон: 1 / Серии: 1-8 из 8 [2019 UHD WEB-DLRip 2160p] [SDR] MVO [LostFilm] bober100 Скачать
2 | 0
Зарубежные сериалы [ 139.26 GB ] Ведьмак / The Witcher / Сезон: 1 / Серии: 1-8 из 8 [2019 UHD WEB-DL 2160p] [SDR] DUB [Пифагор / Netflix] bober100 Скачать
5 | 1

28-11-2019 20:33  

Отключить всю рекламу на сайте

    Дорогой пользователь! Огромная просьба, поблагодарите релизера, оцените раздачу и оставьте свои комментарий, если Вы скачали Ведьмак через торрент бесплатно! Внесите свою лепту в развитие PiratBit!
    Комментировать посты могут только пользователи прошедшие не сложную регистрацию
    Показать сообщения:    

    Ведьмак через торрент
    Скачать бесплатно Ведьмак
    Ведьмак скачать торрент
    Ведьмак смотреть онлайн
    Cкачать фильм Ведьмак бесплатно
    Ведьмак скачать торрент в хорошем качестве
    Ведьмак смотреть онлайн бесплатно в хорошем качестве


    Вы не можете начинать темы
    Вы не можете отвечать на сообщения
    Вы не можете редактировать свои сообщения
    Вы не можете удалять свои сообщения
    Вы не можете голосовать в опросах
    Вы не можете прикреплять файлы к сообщениям
    Вы можете скачивать файлы