Ссылка на приватное зеркало всего за 1$. Внимание количество ограничено!!!

iTunes

1+1

iTunes

мы

MV0

1

WEB-DLRip

Джокер

Пифагор

Ведьмак / The Witcher сериал

iTunes

ПШазам

iTunes

Оно 2

iTunes

30
pack

Вам бонус

ВАЖНО

!!Акция!!

Alien_RageХит недели

RePack

Resident Evil 21

ИГРА 18+

pack

RePack

jed

!!Акция!!

Alien_Rage

RePack

fifa19

RePack

Assassins Creed: Odyssey

RePack

NEED FOR SPEED™ PAYBACK

4 сезон

9 сезон

Бесстыжие 9 сезон

Все сериалы

все сериалы на PB.wtf

RePack

FAR CRY 5
  

Новый Папа / The New Pope / Сезон: 1 / Серии: 1-9 из 9 (Паоло Соррентино) [2020, Драма, HDTVRip 1080p] MVO [TVShows] pibit.top

Новый Папа через торрент pibit.top

Раздают: 1 [ 0 KB/s ]
Размер: 19.24 GB | Добавлен: 15 д. назад | Торрент скачан:3 раза
Скачать  

15-01-2020 17:34 Новый Папа Скачать торрент  

Новый Папа | The New Pope
Год выпуска: 2020
Страна: Италия, Франция, Испания, США
Студия: Canal+ [fr], Haut et Court, Home Box Office (HBO), Sky Italia
Жанр: Драма
Продолжительность: ~ 00:50:00 серия
Перевод: Профессиональный (многоголосый закадровый) | TVShows
Субтитры: Английские (hurdsub на итальянскую речь)

Режиссер: Паоло Соррентино

rating

В ролях: Джуд Лоу, Хавьер Камара, Сесиль Де Франс, Кика Джорджиу, Массимо Гини, Генри Гудман, Марк Иванир, Маурицио Ломбарди, Джон Малкович, Игнацио Олива

Описание: Ленни Белардо впал в кому, так что кардиналам ничего не остаётся, кроме как выбрать нового понтифика, им становится Иоанн Павел III. Он уже готов повести католическую церковь в нужном, как видится кардиналам, направлении, когда Ленни приходит в себя, и миллиарды католиков оказываются в непростой ситуации.

Качество: HDTVRip 1080p
Формат: | X264 | MKV |

Видео: MPEG-4 AVC, 1920x1080, 50 fps, ~5302 kbps
Аудио#1 Rus: AC3, 2 ch, 192 kbps
Аудио#2 Eng: AC3, 2 ch, 384 kbps
скриншот  скриншот  скриншот  скриншот  скриншот  

General
Unique ID : 173043074704926578991927393507961559739 (0x822EE248DD007F0C5AE7D6EFE0695ABB)
Complete name : The.New.Pope.S01E01.1080p.TVShows.mkv
Format : Matroska
Format version : Version 4
File size : 2.41 GiB
Duration : 58 min 42 s
Overall bit rate : 5 881 kb/s
Encoded date : UTC 2020-01-15 16:52:51
Writing application : mkvmerge v33.1.0 ('Primrose') 64-bit
Writing library : libebml v1.3.7 + libmatroska v1.5.0

Video
ID : 1
Format : AVC
Format/Info : Advanced Video Codec
Format profile : [email protected]
Format settings : CABAC / 4 Ref Frames
Format settings, CABAC : Yes
Format settings, Reference frames : 4 frames
Codec ID : V_MPEG4/ISO/AVC
Duration : 58 min 42 s
Bit rate : 5 302 kb/s
Width : 1 920 pixels
Height : 1 080 pixels
Display aspect ratio : 16:9
Frame rate mode : Constant
Frame rate : 50.000 FPS
Color space : YUV
Chroma subsampling : 4:2:0
Bit depth : 8 bits
Scan type : Progressive
Bits/(Pixel*Frame) : 0.051
Stream size : 2.17 GiB (90%)
Writing library : x264 core 158
Encoding settings : cabac=1 / ref=4 / deblock=1:0:0 / analyse=0x3:0x113 / me=hex / subme=8 / psy=1 / psy_rd=1.00:0.00 / mixed_ref=1 / me_range=16 / chroma_me=1 / trellis=2 / 8x8dct=1 / cqm=0 / deadzone=21,11 / fast_pskip=1 / chroma_qp_offset=-2 / threads=18 / lookahead_threads=3 / sliced_threads=0 / nr=0 / decimate=1 / interlaced=0 / bluray_compat=0 / constrained_intra=0 / bframes=3 / b_pyramid=2 / b_adapt=1 / b_bias=0 / direct=3 / weightb=1 / open_gop=0 / weightp=2 / keyint=250 / keyint_min=25 / scenecut=40 / intra_refresh=0 / rc_lookahead=50 / rc=crf / mbtree=1 / crf=17.0 / qcomp=0.60 / qpmin=0 / qpmax=69 / qpstep=4 / ip_ratio=1.40 / aq=1:1.00
Default : Yes
Forced : No
Color range : Full
Color primaries : BT.709
Transfer characteristics : BT.709
Matrix coefficients : BT.709

Audio #1
ID : 2
Format : AC-3
Format/Info : Audio Coding 3
Commercial name : Dolby Digital
Codec ID : A_AC3
Duration : 58 min 42 s
Bit rate mode : Constant
Bit rate : 192 kb/s
Channel(s) : 2 channels
Channel layout : L R
Sampling rate : 48.0 kHz
Frame rate : 31.250 FPS (1536 SPF)
Compression mode : Lossy
Stream size : 80.6 MiB (3%)
Title : TVShows
Language : Russian
Service kind : Complete Main
Default : Yes
Forced : Yes

Audio #2
ID : 3
Format : AC-3
Format/Info : Audio Coding 3
Commercial name : Dolby Digital
Codec ID : A_AC3
Duration : 58 min 42 s
Bit rate mode : Constant
Bit rate : 384 kb/s
Channel(s) : 2 channels
Channel layout : L R
Sampling rate : 48.0 kHz
Frame rate : 31.250 FPS (1536 SPF)
Compression mode : Lossy
Stream size : 161 MiB (7%)
Title : Original
Language : English
Service kind : Complete Main
Default : No
Forced : No

Внимание! Раздача ведётся путём добавления новых серий; при каждом добавлении создаётся новый торрент. Чтобы начать докачку новой серии, пользователям необходимо сделать следующее:
(1) остановить скачивание,
(2) удалить старый торрент у себя из клиента (старые серии удалять не надо),
(3) скачать новый торрент и запустить его у себя в клиенте вместо старого, при этом указать клиенту путь в старую папку куда и должно происходить скачивание новых серий.

Ваш клиент при этом должен произвести хеширование (проверку) старой папки (если не производит сам - помогите ему сделать это), и будет докачивать только те серии которых у вас ещё нет. Старые серии при этом не удаляются, а продолжают раздаваться!

Eсли вы уже удалили старые серии, то предотвратить повторную закачку старых серий можно, отжав галочку в соответсвующих местах при запуске нового торрента. По возможности, желательно не удалять старые серии как можно дольше чтобы релизёр не столько продолжал раздавать старые серии, а смог сконцентрироваться на новых.
pibit.top



Скачать Новый Папа через торрент https://i111.fastpic.ru/big/2020/0115/b1/65f85623fc3c7cc595dfda7af30587b1.jpg Скачать фильм Новый Папа через торрент бесплантно в хорошем качестве Описание: Ленни Белардо впал в кому, так что кардиналам ничего не остаётся, кроме как выбрать нового понтифика, им становится Иоанн Павел ... 10 10 2
Торрент: Зарегистрирован [2020-02-13 18:18] · скачан: 3 раз
Статус: √ проверено
Размер: 19.24 GB
Как cкачать? Как скачать Новый Папа через торрент | qTorrent

% Раздел Тема Автор DL S | L
Зарубежные сериалы [ 9.4 GB ] Новый Папа / The New Pope / Сезон: 1 / Серии: 1-9 из 9 [2020 WEB-DLRip] killermax2013 Скачать
2 | 0
Зарубежные сериалы [ 19.87 GB ] Новый Папа / The New Pope / Сезон: 1 / Серии: 1-9 из 9 [2020 WEBRip 1080p] killermax2013 Скачать
1 | 0
Зарубежные сериалы [ 6.83 GB ] Новый Папа / The New Pope / Сезон: 1 / Серии: 1-9 из 9 [2020 HDTVRip] MVO [NewStudio] bober100 Скачать
2 | 3
Зарубежные сериалы [ 9.88 GB ] Новый Папа / The New Pope / Сезон: 1 / Серии: 1-9 из 9 [2020 HDTV 720p] MVO [NewStudio] bober100 Скачать
2 | 0
Зарубежные сериалы [ 20.03 GB ] Новый Папа / The New Pope / Сезон: 1 / Серии: 1-9 из 9 [2020 HDTV 1080p] MVO [NewStudio] bober100 Скачать
4 | 1
Зарубежные сериалы [ 14.43 GB ] Новый Папа / The New Pope / Сезон: 1 / Серии: 1-9 из 9 [2020 WEB-DL 720p] MVO [LostFilm] bober100 Скачать
2 | 0
Зарубежные сериалы [ 21.26 GB ] Новый Папа / The New Pope / Сезон: 1 / Серии: 1-9 из 9 [2020 WEB-DL 1080p] MVO [LostFilm] bober100 Скачать
2 | 1

28-11-2019 20:33  

Отключить всю рекламу на сайте

    Дорогой пользователь! Огромная просьба, поблагодарите релизера, оцените раздачу и оставьте свои комментарий, если Вы скачали Новый Папа через торрент бесплатно! Внесите свою лепту в развитие PiratBit!
    Комментировать посты могут только пользователи прошедшие не сложную регистрацию
    Показать сообщения:    

    Новый Папа через торрент
    Скачать бесплатно Новый Папа
    Новый Папа скачать торрент
    Новый Папа смотреть онлайн
    Cкачать фильм Новый Папа бесплатно
    Новый Папа скачать торрент в хорошем качестве
    Новый Папа смотреть онлайн бесплатно в хорошем качестве


    Вы не можете начинать темы
    Вы не можете отвечать на сообщения
    Вы не можете редактировать свои сообщения
    Вы не можете удалять свои сообщения
    Вы не можете голосовать в опросах
    Вы не можете прикреплять файлы к сообщениям
    Вы можете скачивать файлы