Ссылка на приватное зеркало всего за 1$. Внимание количество ограничено!!!

iTunes

1+1

iTunes

мы

MV0

1

WEB-DLRip

Джокер

Пифагор

Ведьмак / The Witcher сериал

iTunes

ПШазам

iTunes

Оно 2

iTunes

30
pack

Вам бонус

ВАЖНО

!!Акция!!

Alien_RageХит недели

RePack

Resident Evil 21

ИГРА 18+

pack

RePack

jed

!!Акция!!

Alien_Rage

RePack

fifa19

RePack

Assassins Creed: Odyssey

RePack

NEED FOR SPEED™ PAYBACK

4 сезон

9 сезон

Бесстыжие 9 сезон

Все сериалы

все сериалы на PB.wtf

RePack

FAR CRY 5
  

Ведьмак / The Witcher / Сезон: 1 / Серии: 1-8 из 8 (Алик Сахаров, Шарлотта Брандстром, Алекс Гарсиа Лопес) [2019, фэнтези, боевик, драма, приключения, WEB-DLRip] [DVO] (Кубик в Кубе) pibit.top

Ведьмак через торрент pibit.top

Раздают: 3 [ 0 KB/s ]
Размер: 10.48 GB | Добавлен: 5 д. назад | Торрент скачан:18 раз
Скачать  

17-01-2020 20:17 Ведьмак Скачать торрент  


Ведьмак / The Witcher



Год выпуска: 2019
Страна: США, Польша
Жанр: фэнтези, боевик, драма, приключения
Продолжительность: ~01:00:00
Перевод: Профессиональный (двухголосый) *Кубик в Кубе*
Режиссёр: Алик Сахаров / Alik Sakharov, Шарлотта Брандстром / Charlotte Brändström, Алекс Гарсиа Лопес / Alex Garcia Lopez
В ролях: Генри Кавилл, Фрейя Аллан, Джои Бэти, МайАнна Бёринг, Том Кэнтон, Аня Чалотра, Имон Фэррен, Бьерн Хлинур Харальдссон, Адам Леви, Джоди Мэй
Описание: Ведьмак Геральт, мутант и убийца чудовищ, изо всех сил старается найти свое место в мире, где люди часто оказываются намного хуже монстров.

Релиз -- CasStudio
Работа со звуком: Messafan

Качество: WEB-DLRip
Формат: AVI
Видео: Xvid, 704 x 352 (2.000), ~2000 kbps, 24,000 fps, 0.34 Bits/Pixel
Аудио 1: Russian: 48 kHz, AC3, 3/2 (L,C,R,l,r) + LFE ch, 384 kbps avg |Кубик в Кубе|
Аудио 2: English: 48 kHz, AC3, 3/2 (L,C,R,l,r) + LFE ch, 384 kbps avg
Субтитры: Rus (Forced на песни), Eng
General
Complete name : E:\The.Witcher.s01.WEB-DLRip.CasStudio.TK\The.Witcher.S01E01.WEB-DLRip.CasStudio.TK.avi
Format : AVI
Format/Info : Audio Video Interleave
File size : 1.19 GiB
Duration : 1h 1mn
Overall bit rate : 2 783 Kbps
Writing application : VirtualDubMod 1.5.10.3 | www.virtualdub-fr.org || (build 2550/release)
Writing library : VirtualDubMod build 2550/release

Video
ID : 0
Format : MPEG-4 Visual
Format profile : Advanced [email protected]
Format settings, BVOP : 1
Format settings, QPel : No
Format settings, GMC : No warppoints
Format settings, Matrix : Default (MPEG)
Codec ID : XVID
Codec ID/Hint : XviD
Duration : 1h 1mn
Bit rate : 1 894 Kbps
Width : 704 pixels
Height : 352 pixels
Display aspect ratio : 2.000
Frame rate : 24.000 fps
Color space : YUV
Chroma subsampling : 4:2:0
Bit depth : 8 bits
Scan type : Progressive
Compression mode : Lossy
Bits/(Pixel*Frame) : 0.319
Stream size : 828 MiB (68%)
Writing library : XviD 1.2.1 (UTC 2008-12-04)

Audio #1
ID : 1
Format : AC-3
Format/Info : Audio Coding 3
Mode extension : CM (complete main)
Format settings, Endianness : Big
Codec ID : 2000
Duration : 1h 1mn
Bit rate mode : Constant
Bit rate : 384 Kbps
Channel(s) : 6 channels
Channel positions : Front: L C R, Side: L R, LFE
Sampling rate : 48.0 KHz
Compression mode : Lossy
Stream size : 168 MiB (14%)
Alignment : Split accross interleaves

Audio #2
ID : 2
Format : AC-3
Format/Info : Audio Coding 3
Mode extension : CM (complete main)
Format settings, Endianness : Big
Codec ID : 2000
Duration : 1h 1mn
Bit rate mode : Constant
Bit rate : 384 Kbps
Channel(s) : 6 channels
Channel positions : Front: L C R, Side: L R, LFE
Sampling rate : 48.0 KHz
Compression mode : Lossy
Stream size : 168 MiB (14%)
Alignment : Split accross interleaves
скриншот  скриншот  скриншот  
pibit.top



Скачать Ведьмак через торрент https://img16.lostpic.net/2019/12/20/f8808216fbbe86dab98e898b1e9235a0.jpg Скачать фильм Ведьмак через торрент бесплантно в хорошем качестве Описание: Ведьмак Геральт, мутант и убийца чудовищ, изо всех сил старается найти свое место в мире, где люди часто оказываются намного хуже ... 10 10 6
Торрент: Зарегистрирован [2020-02-22 09:36] · скачан: 18 раз
Статус: √ проверено
Размер: 10.48 GB
Как cкачать? Как скачать Ведьмак через торрент | qTorrent

% Раздел Тема Автор DL S | L
Зарубежные сериалы [ 22.3 GB ] Ведьмак / The Witcher / Сезон: 1 / Серии: 1-8 из 8 [2019 WEB-DL 720p] MVO [LostFilm] bober100 Скачать
2 | 1
R.G.Resident - Сериалы, Видео [ 2.15 GB ] Ведьмак / The Witcher / Сезон: 1 / Серии: 1-8 из 8 [2019 WEB-DLRip | КПК ] Dub Cтрана Скачать
4 | 0
Зарубежные сериалы [ 24.45 GB ] Ведьмак / The Witcher / Сезон: 1 / Серии: 1-8 из 8 [2019 WEB-DL 1080p] DUB [Пифагор / Netflix] bober100 Скачать
45 | 2
Зарубежные сериалы [ 8.22 GB ] Ведьмак / The Witcher / Сезон: 1 / Серии: 1-8 из 8 [2019 WEB-DLRip] - [Пифагор / Netflix] Twi7ter Скачать
443 | 59
Зарубежные сериалы [ 27.58 GB ] Ведьмак / The Witcher / Сезон: 1 / Серии: 1-8 из 8 [2019 UHD WEB-DLRip 2160p] [SDR] MVO [LostFilm] bober100 Скачать
2 | 0
Зарубежные сериалы [ 139.26 GB ] Ведьмак / The Witcher / Сезон: 1 / Серии: 1-8 из 8 [2019 UHD WEB-DL 2160p] [SDR] DUB [Пифагор / Netflix] bober100 Скачать
5 | 1
Зарубежные сериалы [ 56.05 GB ] Ведьмак / The Witcher / Сезон: 1 / Серии: 1-8 из 8 [2019 WEBRip 1080p] [MVO] killermax2013 Скачать
1 | 0


Последний раз редактировалось: killermax2013 (2020-02-22 09:36), всего редактировалось 2 раз(а)

28-11-2019 20:33  

Отключить всю рекламу на сайте

22-02-2020 09:37 Ведьмак Скачать торрент  

Цитата:

добавлена третья, недостающая, серия. Извините за предоставленные неудобства

pibit.top



    Дорогой пользователь! Огромная просьба, поблагодарите релизера, оцените раздачу и оставьте свои комментарий, если Вы скачали Ведьмак через торрент бесплатно! Внесите свою лепту в развитие PiratBit!
    Комментировать посты могут только пользователи прошедшие не сложную регистрацию
    Показать сообщения:    

    Ведьмак через торрент
    Скачать бесплатно Ведьмак
    Ведьмак скачать торрент
    Ведьмак смотреть онлайн
    Cкачать фильм Ведьмак бесплатно
    Ведьмак скачать торрент в хорошем качестве
    Ведьмак смотреть онлайн бесплатно в хорошем качестве


    Вы не можете начинать темы
    Вы не можете отвечать на сообщения
    Вы не можете редактировать свои сообщения
    Вы не можете удалять свои сообщения
    Вы не можете голосовать в опросах
    Вы не можете прикреплять файлы к сообщениям
    Вы можете скачивать файлы