Ссылка на приватное зеркало всего за 1$. Внимание количество ограничено!!!

iTunes

1+1

iTunes

мы

MV0

1

WEB-DLRip

Джокер

Пифагор

Ведьмак / The Witcher сериал

iTunes

ПШазам

iTunes

Оно 2

iTunes

30
pack

Вам бонус

ВАЖНО

!!Акция!!

Alien_RageХит недели

RePack

Resident Evil 21

ИГРА 18+

pack

RePack

jed

!!Акция!!

Alien_Rage

RePack

fifa19

RePack

Assassins Creed: Odyssey

RePack

NEED FOR SPEED™ PAYBACK

4 сезон

9 сезон

Бесстыжие 9 сезон

Все сериалы

все сериалы на PB.wtf

RePack

FAR CRY 5
  

Угнать за 60 секунд / Gone in Sixty Seconds (Доминик Сена) [2000, Боевик, триллер, криминал, BDRip-HEVC 1080p, (10 bit)] DUB [Лицензия] pibit.top

Угнать за 60 секунд через торрент pibit.top

Раздают: 2 [ 0 KB/s ]
Размер: 6.43 GB | Добавлен: 1 мес. 9 д. назад | Торрент скачан:95 раз
Скачать  

18-01-2020 21:45 Угнать за 60 секунд Скачать торрент  

Угнать за 60 секунд | Gone in Sixty Seconds
Год выпуска: 2000
Страна: США
Студия: Touchstone Pictures
Жанр: Боевик, триллер, криминал
Продолжительность: 01:57:57
Перевод: Дублированный | Лицензия
Субтитры: Русские, English (full)

Режиссер: Доминик Сена

rating

В ролях: Николас Кейдж, Анджелина Джоли, Джованни Рибизи, Роберт Дювалл, Уилл Пэттон, Делрой Линдо, Тимоти Олифант, Скотт Каан, Кристофер Экклстон, Винни Джонс

Описание: Что можно успеть за 60 секунд? Выкурить сигарету или выпить чашку кофе. Но только один профессионал в мире, легендарный вор по кличке Мемфис, может за считанные секунды угнать любой автомобиль. Однако на этот раз ему предстоит сделать невозможное: чтобы спасти своего брата, Мемфис должен за одну ночь угнать 50 первоклассных машин. Чтобы вырваться из двойного капкана мафии и полиции, он должен следовать одному принципу — не останавливаться…

Качество: BDRip-HEVC 1080p
Формат: MKV

Видео: 1920x816 (2,35:1), 7151 кбит/сек, 0.190 бит/(Пиксели*Кадры), 23.976 (24000/1001) кадр/сек, HEVC ([email protected]@High) 10 бит
Аудио#1: AC3, 6 ch, 640 Kbps - русский Дублированный
Аудио#2: AC3, 6 ch, 640 Kbps - english Original
скриншот  скриншот  скриншот  скриншот  

Формат : Matroska
Версия формата : Version 4
Размер файла : 6,43 Гбайт
Продолжительность : 1 ч. 58 м.
Общий поток : 7798 Кбит/сек
Название фильма : Угнать.за.60.секунд.Gone.In.60.Seconds.2000.BD
Дата кодирования : UTC 2020-01-17 15:04:12
Программа кодирования : mkvmerge v42.0.0 ('Overtime') 64-bit
Библиотека кодирования : libebml v1.3.10 + libmatroska v1.5.2
Обложка : Yes
Attachments : cover.jpg

Видео
Идентификатор : 1
Формат : HEVC
Формат/Информация : High Efficiency Video Coding
Профиль формата : Main [email protected]@High
Идентификатор кодека : V_MPEGH/ISO/HEVC
Продолжительность : 1 ч. 57 м.
Битрейт : 7151 Кбит/сек
Ширина : 1920 пикселей
Высота : 816 пикселей
Соотношение сторон : 2,35:1
Режим частоты кадров : Постоянный
Частота кадров : 23,976 (24000/1001) кадра/сек
Цветовое пространство : YUV
Субдискретизация насыщенности : 4:2:0
Битовая глубина : 10 бит
Бит/(Пиксели*Кадры) : 0.190
Размер потока : 5,89 Гбайт (92%)
Заголовок : Gone in Sixty Seconds / Rip by OldGamer
Библиотека кодирования : x265 2.9+9-f74003e88622:[Windows][GCC 8.2.0][64 bit] 10bit
Настройки программы : cpuid=1111039 / frame-threads=13 / numa-pools=12 / wpp / no-pmode / no-pme / no-psnr / no-ssim / log-level=3 / input-csp=1 / input-res=1920x816 / interlace=0 / total-frames=0 / level-idc=41 / high-tier=1 / uhd-bd=0 / ref=5 / allow-non-conformance / no-repeat-headers / annexb / no-aud / no-hrd / info / hash=0 / no-temporal-layers / open-gop / min-keyint=23 / keyint=240 / gop-lookahead=0 / bframes=13 / b-adapt=2 / b-pyramid / bframe-bias=0 / rc-lookahead=80 / lookahead-slices=5 / scenecut=40 / radl=0 / no-intra-refresh / ctu=64 / min-cu-size=8 / rect / amp / max-tu-size=32 / tu-inter-depth=4 / tu-intra-depth=4 / limit-tu=1 / rdoq-level=2 / dynamic-rd=0.00 / no-ssim-rd / signhide / no-tskip / nr-intra=0 / nr-inter=0 / no-constrained-intra / no-strong-intra-smoothing / max-merge=5 / limit-refs=3 / no-limit-modes / me=3 / subme=7 / merange=57 / temporal-mvp / weightp / weightb / no-analyze-src-pics / deblock=-3:-3 / no-sao / no-sao-non-deblock / rd=6 / no-early-skip / rskip / no-fast-intra / no-tskip-fast / no-cu-lossless / no-b-intra / no-splitrd-skip / rdpenalty=0 / psy-rd=2.00 / psy-rdoq=1.00 / no-rd-refine / no-lossless / cbqpoffs=0 / crqpoffs=0 / rc=crf / crf=19.1 / qcomp=0.60 / qpstep=4 / stats-write=0 / stats-read=0 / vbv-maxrate=50000 / vbv-bufsize=50000 / vbv-init=0.9 / crf-max=0.0 / crf-min=0.0 / ipratio=1.40 / pbratio=1.30 / aq-mode=2 / aq-strength=0.80 / no-cutree / zone-count=1 / zones: / start-frame=160658 / end-frame=169678 / qp=36 / no-strict-cbr / qg-size=32 / no-rc-grain / qpmax=69 / qpmin=0 / no-const-vbv / sar=1 / overscan=0 / videoformat=5 / range=0 / colorprim=2 / transfer=2 / colormatrix=2 / chromaloc=0 / display-window=0 / max-cll=0,0 / min-luma=0 / max-luma=1023 / log2-max-poc-lsb=8 / vui-timing-info / vui-hrd-info / slices=1 / no-opt-qp-pps / no-opt-ref-list-length-pps / no-multi-pass-opt-rps / scenecut-bias=0.00 / no-opt-cu-delta-qp / aq-motion / no-hdr / no-hdr-opt / no-dhdr10-opt / no-idr-recovery-sei / analysis-reuse-level=5 / scale-factor=0 / refine-intra=0 / refine-inter=0 / refine-mv=0 / no-limit-sao / ctu-info=0 / no-lowpass-dct / refine-mv-type=0 / copy-pic=1 / max-ausize-factor=1.0 / no-dynamic-refine / no-single-sei
Язык : English
Default : Да
Forced : Нет
Цветовой диапазон : Limited

Аудио #1
Идентификатор : 2
Формат : AC-3
Формат/Информация : Audio Coding 3
Коммерческое название : Dolby Digital
Идентификатор кодека : A_AC3
Продолжительность : 1 ч. 58 м.
Вид битрейта : Постоянный
Битрейт : 640 Кбит/сек
Каналы : 6 каналов
Channel layout : L R C LFE Ls Rs
Частота : 48,0 КГц
Частота кадров : 31,250 кадров/сек (1536 SPF)
Битовая глубина : 16 бит
Метод сжатия : С потерями
Размер потока : 540 Мбайт (8%)
Заголовок : Dub
Язык : Russian
ServiceKind/ : Complete Main
Default : Нет
Forced : Нет

Аудио #2
Идентификатор : 3
Формат : AC-3
Формат/Информация : Audio Coding 3
Коммерческое название : Dolby Digital
Идентификатор кодека : A_AC3
Продолжительность : 53 с. 248 мс.
Вид битрейта : Постоянный
Битрейт : 640 Кбит/сек
Каналы : 6 каналов
Channel layout : L R C LFE Ls Rs
Частота : 48,0 КГц
Частота кадров : 31,250 кадров/сек (1536 SPF)
Битовая глубина : 16 бит
Метод сжатия : С потерями
Размер потока : 4,06 Мбайт (0%)
Язык : English
ServiceKind/ : Complete Main
Default : Нет
Forced : Нет

Текст #1
Идентификатор : 4
Формат : UTF-8
Идентификатор кодека : S_TEXT/UTF8
Идентификатор кодека/Информация : UTF-8 Plain Text
Продолжительность : 1 ч. 49 м.
Битрейт : 105 бит/сек
ElementCount : 1507
Размер потока : 85,2 Кбайт (0%)
Язык : Russian
Default : Да
Forced : Нет

Текст #2
Идентификатор : 5
Формат : UTF-8
Идентификатор кодека : S_TEXT/UTF8
Идентификатор кодека/Информация : UTF-8 Plain Text
Продолжительность : 1 ч. 48 м.
Битрейт : 72 бит/сек
ElementCount : 1346
Размер потока : 57,3 Кбайт (0%)
Язык : English
Default : Нет
Forced : Нет

Меню
00:00:00.000 : en:Chapter 01
00:03:25.455 : en:Chapter 02
00:08:47.151 : en:Chapter 03
00:11:55.089 : en:Chapter 04
00:16:55.264 : en:Chapter 05
00:18:44.373 : en:Chapter 06
00:23:37.416 : en:Chapter 07
00:26:51.109 : en:Chapter 08
00:31:59.417 : en:Chapter 09
00:33:37.890 : en:Chapter 10
00:36:24.682 : en:Chapter 11
00:38:43.696 : en:Chapter 12
00:39:34.747 : en:Chapter 13
00:42:12.029 : en:Chapter 14
00:44:20.282 : en:Chapter 15
00:48:43.420 : en:Chapter 16
00:52:56.548 : en:Chapter 17
00:58:45.355 : en:Chapter 18
01:06:18.307 : en:Chapter 19
01:11:08.097 : en:Chapter 20
01:13:43.877 : en:Chapter 21
01:17:30.979 : en:Chapter 22
01:19:39.733 : en:Chapter 23
01:21:24.963 : en:Chapter 24
01:26:48.161 : en:Chapter 25
01:32:53.150 : en:Chapter 26
01:34:19.487 : en:Chapter 27
01:38:28.861 : en:Chapter 28
01:40:07.918 : en:Chapter 29
01:44:13.413 : en:Chapter 30
01:48:40.555 : en:Chapter 31
01:51:49.619 : en:Chapter 32

pibit.top



Скачать Угнать за 60 секунд через торрент http://lostpic.net/images/a5e44998c79729167b4ece185dc7b4a6.png Скачать фильм Угнать за 60 секунд через торрент бесплантно в хорошем качестве Описание: Что можно успеть за 60 секунд? Выкурить сигарету или выпить чашку кофе. Но только один профессионал в мире, легендарный вор по ... 10 10 7
Info! Золотая раздача, скачанное не засчитывается.
Торрент: Зарегистрирован [2020-01-18 21:45] · скачан: 95 раз
Статус: √ проверено
Размер: 6.43 GB
Как cкачать? Как скачать Угнать за 60 секунд через торрент | qTorrent

% Раздел Тема Автор DL S | L
Фильмы до 2000 г. [ 1.46 GB ] Угнать за 60 секунд [Unrated] / Gone in Sixty Seconds [Режиссерская версия] [2000 DVDRip DUB лицензия] Drakosha Скачать
1 | 0

28-11-2019 20:33  

Отключить всю рекламу на сайте

    Дорогой пользователь! Огромная просьба, поблагодарите релизера, оцените раздачу и оставьте свои комментарий, если Вы скачали Угнать за 60 секунд через торрент бесплатно! Внесите свою лепту в развитие PiratBit!
    Комментировать посты могут только пользователи прошедшие не сложную регистрацию
    Показать сообщения:    

    Угнать за 60 секунд через торрент
    Скачать бесплатно Угнать за 60 секунд
    Угнать за 60 секунд скачать торрент
    Угнать за 60 секунд смотреть онлайн
    Cкачать фильм Угнать за 60 секунд бесплатно
    Угнать за 60 секунд скачать торрент в хорошем качестве
    Угнать за 60 секунд смотреть онлайн бесплатно в хорошем качестве


    Вы не можете начинать темы
    Вы не можете отвечать на сообщения
    Вы не можете редактировать свои сообщения
    Вы не можете удалять свои сообщения
    Вы не можете голосовать в опросах
    Вы не можете прикреплять файлы к сообщениям
    Вы можете скачивать файлы