Ссылка на приватное зеркало всего за 1$. Внимание количество ограничено!!!

iTunes

1+1

iTunes

мы

MV0

1

WEB-DLRip

Джокер

Пифагор

Ведьмак / The Witcher сериал

iTunes

ПШазам

iTunes

Оно 2

iTunes

30
pack

Вам бонус

ВАЖНО

!!Акция!!

Alien_RageХит недели

RePack

Resident Evil 21

ИГРА 18+

pack

RePack

jed

!!Акция!!

Alien_Rage

RePack

fifa19

RePack

Assassins Creed: Odyssey

RePack

NEED FOR SPEED™ PAYBACK

4 сезон

9 сезон

Бесстыжие 9 сезон

Все сериалы

все сериалы на PB.wtf

RePack

FAR CRY 5
  

Сошедшие с небес / Рухнувшие небеса / Falling Skies / Сезон: 1 / Серии: 1-10 из 10 (Грег Биман, Олатунде Осунсанми, Серджо Мимика-Геззан) [2011, Фантастика, приключения, драма, боевик, BDRip 720p] MVO [TVShows] pibit.top

Сошедшие с небес через торрент pibit.top

Размер: 15.32 GB | Добавлен: 1 мес. 8 д. назад | Торрент скачан:15 раз
Скачать  

19-01-2020 03:51 Сошедшие с небес Скачать торрент  

Сошедшие с небес | Рухнувшие небеса | Falling Skies
Год выпуска: 2011
Страна: США, Канада
Жанр: Фантастика, приключения, драма, боевик
Продолжительность: ~ 00:42:00 серия
Перевод: Профессиональный (многоголосый) | TVShows
Субтитры: отсутствуют

Режиссер: Грег Биман, Олатунде Осунсанми, Серджо Мимика-Геззан

rating

В ролях: Ноа Уайли, Мун Бладгуд, Дрю Рой, Коннор Джессап, Максим Найт, Сейшелл Гэбриел, Уилл Пэттон, Сара Картер, Колин Каннингэм, Питер Синкода

Описание: Инопланетное вторжение стало для землян полной неожиданностью. Несколько выживших объединяются, чтобы ежедневно бороться за выживание и попытаться наладить связь с такими же как они «счастливчиками» из других городов, и дать отпор захватчикам из космоса.

Качество: BDRip 720p
Формат: MKV

Видео: MPEG-4 AVC, 1280x720, 23.976 fps, ~ 4500 kbps
Аудио#1: Русский, AC3, 48 kHz, 6 ch, 384 kbps
Аудио#2: Английский, AC3, 48 kHz, 6 ch, 640 kbps
скриншот  скриншот  скриншот  скриншот  скриншот  
скриншот  

Общее
Уникальный идентификатор : 266659198144237612987584752760591844295 (0xC89CB186EFE9A639A81DC804428D83C7)
Полное имя : D:\Falling.Skies.S01.720p.TVShows\Falling.Skies.S01E01.720p.TVShows.mkv
Формат : Matroska
Версия формата : Version 4 / Version 2
Размер файла : 1,57 Гбайт
Продолжительность : 42 м. 4 с.
Общий поток : 5342 Кбит/сек
Дата кодирования : UTC 2020-01-17 07:37:36
Программа кодирования : mkvmerge v33.1.0 ('Primrose') 64-bit
Библиотека кодирования : libebml v1.3.7 + libmatroska v1.5.0

Видео
Идентификатор : 1
Формат : AVC
Формат/Информация : Advanced Video Codec
Профиль формата : [email protected]
Параметр CABAC формата : Да
Параметр RefFrames формата : 2 кадра
Идентификатор кодека : V_MPEG4/ISO/AVC
Продолжительность : 42 м. 4 с.
Битрейт : 4315 Кбит/сек
Ширина : 1280 пикселей
Высота : 720 пикселей
Соотношение сторон : 16:9
Режим частоты кадров : Постоянный
Частота кадров : 23,976 кадра/сек
Цветовое пространство : YUV
Субдискретизация насыщенности : 4:2:0
Битовая глубина : 8 бит
Тип развёртки : Прогрессивная
Бит/(Пиксели*Кадры) : 0.195
Размер потока : 1,27 Гбайт (81%)
Язык : English
Default : Да
Forced : Нет

Аудио #1
Идентификатор : 2
Формат : AC-3
Формат/Информация : Audio Coding 3
Расширение режима : CM (complete main)
Параметр Endianness формата : Big
Идентификатор кодека : A_AC3
Продолжительность : 42 м. 4 с.
Вид битрейта : Постоянный
Битрейт : 384 Кбит/сек
Каналы : 6 каналов
Расположение каналов : Front: L C R, Side: L R, LFE
Частота : 48,0 КГц
Частота кадров : 31,250 кадров/сек (1536 spf)
Метод сжатия : С потерями
Размер потока : 116 Мбайт (7%)
Заголовок : TVShows
Язык : Russian
Default : Да
Forced : Да

Аудио #2
Идентификатор : 3
Формат : AC-3
Формат/Информация : Audio Coding 3
Расширение режима : CM (complete main)
Параметр Endianness формата : Big
Идентификатор кодека : A_AC3
Продолжительность : 42 м. 4 с.
Вид битрейта : Постоянный
Битрейт : 640 Кбит/сек
Каналы : 6 каналов
Расположение каналов : Front: L C R, Side: L R, LFE
Частота : 48,0 КГц
Частота кадров : 31,250 кадров/сек (1536 spf)
Метод сжатия : С потерями
Размер потока : 193 Мбайт (12%)
Заголовок : Original
Язык : English
Default : Нет
Forced : Нет

При каждом добавлении создаётся новый торрент. Чтобы начать докачку новой серии, пользователям необходимо сделать следующее:
  • остановить скачивание,
  • удалить старый торрент у себя из клиента (старые серии удалять не надо),
    скачать новый торрент и запустить его у себя в клиенте вместо старого, при этом указать клиенту путь в старую папку куда и должно происходить скачивание новых серий.

  • Ваш клиент при этом должен произвести хеширование (проверку) старой папки (если не производит сам - помогите ему сделать это), и будет докачивать только те серии которых у вас ещё нет. Старые серии при этом не удаляются, а продолжают раздаваться!
    Eсли вы уже удалили старые серии, то предотвратить повторную закачку старых серий можно, отжав галочку в соответствующих местах при запуске нового торрента. По возможности, желательно не удалять старые серии как можно дольше чтобы релизёр не столько продолжал раздавать старые серии, а смог сконцентрироваться на новых.
  • pibit.top



    Скачать Сошедшие с небес через торрент https://c.radikal.ru/c42/2001/e7/37db18d56585.jpg Скачать фильм Сошедшие с небес через торрент бесплантно в хорошем качестве Описание: Инопланетное вторжение стало для землян полной неожиданностью. Несколько выживших объединяются, чтобы ежедневно бороться за ... 10 10 2
    Торрент: Зарегистрирован [2020-01-19 17:14] · скачан: 15 раз
    Статус: √ проверено
    Размер: 15.32 GB
    Как cкачать? Как скачать Сошедшие с небес через торрент | qTorrent

    % Раздел Тема Автор DL S | L
    Зарубежные сериалы [ 27.58 GB ] Сошедшие с небес / Рухнувшие небеса / Falling Skies / Сезон: 1 / Серии: 1-10 из 10 [2011 BDRip 1080p] MVO [TVShows] bober100 Скачать
    1 | 0
    Зарубежные сериалы [ 5.2 GB ] Сошедшие с небес / Рухнувшие небеса / Falling Skies / Сезон: 5 / Серии 1-10 из 10 [2015 WEB-DLRip] MVO [LostFilm GEKADOL Скачать
    1 | 0

    28-11-2019 20:33  

    Отключить всю рекламу на сайте

      Дорогой пользователь! Огромная просьба, поблагодарите релизера, оцените раздачу и оставьте свои комментарий, если Вы скачали Сошедшие с небес через торрент бесплатно! Внесите свою лепту в развитие PiratBit!
      Комментировать посты могут только пользователи прошедшие не сложную регистрацию
      Показать сообщения:    

      Сошедшие с небес через торрент
      Скачать бесплатно Сошедшие с небес
      Сошедшие с небес скачать торрент
      Сошедшие с небес смотреть онлайн
      Cкачать фильм Сошедшие с небес бесплатно
      Сошедшие с небес скачать торрент в хорошем качестве
      Сошедшие с небес смотреть онлайн бесплатно в хорошем качестве


      Вы не можете начинать темы
      Вы не можете отвечать на сообщения
      Вы не можете редактировать свои сообщения
      Вы не можете удалять свои сообщения
      Вы не можете голосовать в опросах
      Вы не можете прикреплять файлы к сообщениям
      Вы можете скачивать файлы