Ссылка на приватное зеркало всего за 1$. Внимание количество ограничено!!!

iTunes

1+1

iTunes

мы

MV0

1

WEB-DLRip

Джокер

Пифагор

Ведьмак / The Witcher сериал

iTunes

ПШазам

iTunes

Оно 2

iTunes

30
pack

Вам бонус

ВАЖНО

!!Акция!!

Alien_RageХит недели

RePack

Resident Evil 21

ИГРА 18+

pack

RePack

jed

!!Акция!!

Alien_Rage

RePack

fifa19

RePack

Assassins Creed: Odyssey

RePack

NEED FOR SPEED™ PAYBACK

4 сезон

9 сезон

Бесстыжие 9 сезон

Все сериалы

все сериалы на PB.wtf

RePack

FAR CRY 5
  

Мегамозг / Megamind (Том МакГрат) [2010, мультфильм, фантастика, боевик, комедия, семейный, BDRip-HEVC 1080p, (10 bit)] DUB (rus, ukr) [Лицензия] pibit.top

Мегамозг через торрент pibit.top

Раздают: 4 [ 0 KB/s ]
Размер: 4.54 GB | Добавлен: 1 мес. 9 д. назад | Торрент скачан:106 раз
Скачать  

19-01-2020 04:56 Мегамозг Скачать торрент  

Мегамозг | Megamind
Год выпуска: 2010
Страна: США
Студия: DreamWorks Animation, Pacific Data Images (PDI), Red Hour Films
Жанр: мультфильм, фантастика, боевик, комедия, семейный
Продолжительность: 01:35:34
Перевод: Дублированный | Лицензия
Субтитры: Русские (форсированные, полные), украинские (форсированные, полные), английские (полные, SDH)

Режиссер: Том МакГрат

rating

В ролях: Уилл Феррелл, Тина Фей, Джона Хилл, Дэвид Кросс, Брэд Питт, Дж.К. Симмонс, Джастин Теру, Бен Стиллер, Джессика Шульте, Том МакГрат

Описание: Мегамозг — самый гениальный и самый неудачливый злодей в мире. Вот уже много лет он пытается покорить Метро-Сити самыми разнообразными способами. Но каждая такая попытка кончается провалом по вине супергероя по имени Метро-Мэн. Но злодей убивает супергероя, и внезапно Мегамозг лишается цели в жизни. Суперзлодей без супергероя.

Качество: BDRip-HEVC 1080p
Формат: MKV

Видео: HEVC/H.265, 1920x816, ~4872 Kbps, 23,976 fps, 10 bit
Аудио 1: AC3, 6 ch, 640 Kbps - Русский, дублированный (Лицензия)
Аудио 2: AC3, 6 ch, 640 Kbps - Украинский, дублированный
Аудио 3: AC3, 6 ch, 640 Kbps - Английский
скриншот  скриншот  скриншот  скриншот  

Общее
Уникальный идентификатор : 235775291146499813163829166096898611838 (0xB160AB59A426287D8AC5A21D833C5A7E)
Полное имя : R:Megamind (2010) BDRip 1080p [HEVC].mkv
Формат : Matroska
Версия формата : Version 4 / Version 2
Размер файла : 4,54 Гбайт
Продолжительность : 1 ч. 35 м.
Общий поток : 6795 Кбит/сек
Название фильма : Megamind (2010)
Дата кодирования : UTC 2019-12-23 07:14:03
Программа кодирования : mkvmerge v40.0.0 ('Old Town Road + Pony') 64-bit
Библиотека кодирования : libebml v1.3.9 + libmatroska v1.5.2
Обложка : Yes
Attachments : cover.jpg

Видео
Идентификатор : 1
Формат : HEVC
Формат/Информация : High Efficiency Video Coding
Профиль формата : Main [email protected]@High
Идентификатор кодека : V_MPEGH/ISO/HEVC
Продолжительность : 1 ч. 35 м.
Битрейт : 4872 Кбит/сек
Ширина : 1920 пикселей
Высота : 816 пикселей
Соотношение сторон : 2,35:1
Режим частоты кадров : Постоянный
Частота кадров : 23,976 (24000/1001) кадра/сек
Цветовое пространство : YUV
Субдискретизация насыщенности : 4:2:0
Битовая глубина : 10 бит
Бит/(Пиксели*Кадры) : 0.130
Размер потока : 3,25 Гбайт (72%)
Библиотека кодирования : x265 3.2.1+1-b5c86a64bbbe:[Windows][MSVC 1923][64 bit] 10bit
Настройки программы : cpuid=1111039 / frame-threads=3 / numa-pools=12 / wpp / no-pmode / no-pme / no-psnr / no-ssim / log-level=2 / input-csp=1 / input-res=1920x816 / interlace=0 / total-frames=127617 / level-idc=41 / high-tier=1 / uhd-bd=0 / ref=5 / no-allow-non-conformance / no-repeat-headers / annexb / no-aud / no-hrd / info / hash=0 / no-temporal-layers / open-gop / min-keyint=23 / keyint=240 / gop-lookahead=0 / bframes=8 / b-adapt=2 / b-pyramid / bframe-bias=0 / rc-lookahead=60 / lookahead-slices=4 / scenecut=40 / radl=0 / no-splice / no-intra-refresh / ctu=32 / min-cu-size=8 / rect / amp / max-tu-size=32 / tu-inter-depth=4 / tu-intra-depth=4 / limit-tu=1 / rdoq-level=2 / dynamic-rd=0.00 / no-ssim-rd / signhide / no-tskip / nr-intra=0 / nr-inter=0 / no-constrained-intra / no-strong-intra-smoothing / max-merge=4 / limit-refs=2 / limit-modes / me=3 / subme=7 / merange=57 / temporal-mvp / no-hme / weightp / weightb / no-analyze-src-pics / deblock=-3:-3 / no-sao / no-sao-non-deblock / rd=6 / selective-sao=0 / no-early-skip / no-rskip / no-fast-intra / no-tskip-fast / no-cu-lossless / no-b-intra / no-splitrd-skip / rdpenalty=0 / psy-rd=2.00 / psy-rdoq=1.00 / no-rd-refine / no-lossless / cbqpoffs=0 / crqpoffs=0 / rc=crf / crf=19.0 / qcomp=0.60 / qpstep=4 / stats-write=0 / stats-read=0 / vbv-maxrate=50000 / vbv-bufsize=50000 / vbv-init=0.9 / crf-max=0.0 / crf-min=0.0 / ipratio=1.40 / pbratio=1.30 / aq-mode=1 / aq-strength=1.00 / no-cutree / zone-count=0 / no-strict-cbr / qg-size=32 / no-rc-grain / qpmax=69 / qpmin=0 / no-const-vbv / sar=1 / overscan=0 / videoformat=5 / range=0 / colorprim=1 / transfer=1 / colormatrix=1 / chromaloc=0 / display-window=0 / cll=0,0 / min-luma=0 / max-luma=1023 / log2-max-poc-lsb=8 / vui-timing-info / vui-hrd-info / slices=1 / no-opt-qp-pps / no-opt-ref-list-length-pps / no-multi-pass-opt-rps / scenecut-bias=0.05 / no-opt-cu-delta-qp / no-aq-motion / no-hdr / no-hdr-opt / no-dhdr10-opt / no-idr-recovery-sei / analysis-reuse-level=5 / scale-factor=0 / refine-intra=0 / refine-inter=0 / refine-mv=1 / refine-ctu-distortion=0 / no-limit-sao / ctu-info=0 / no-lowpass-dct / refine-analysis-type=0 / copy-pic=1 / max-ausize-factor=1.0 / no-dynamic-refine / no-single-sei / no-hevc-aq / no-svt / no-field / qp-adaptation-range=1.00
Default : Да
Forced : Нет
Цветовой диапазон : Limited
Основные цвета : BT.709
Характеристики трансфера : BT.709
Коэффициенты матрицы : BT.709

Аудио #1
Идентификатор : 2
Формат : AC-3
Формат/Информация : Audio Coding 3
Идентификатор кодека : A_AC3
Продолжительность : 1 ч. 35 м.
Вид битрейта : Постоянный
Битрейт : 640 Кбит/сек
Каналы : 6 каналов
Расположение каналов : Front: L C R, Side: L R, LFE
Частота : 48,0 КГц
Частота кадров : 31,250 кадров/сек (1536 SPF)
Битовая глубина : 16 бит
Метод сжатия : С потерями
Задержка видео : 1 с. 24 мс.
Размер потока : 437 Мбайт (9%)
Заголовок : Лицензия
Язык : Russian
ServiceKind/Strin : Complete Main
Default : Да
Forced : Нет

Аудио #2
Идентификатор : 3
Формат : AC-3
Формат/Информация : Audio Coding 3
Идентификатор кодека : A_AC3
Продолжительность : 1 ч. 35 м.
Вид битрейта : Постоянный
Битрейт : 640 Кбит/сек
Каналы : 6 каналов
Расположение каналов : Front: L C R, Side: L R, LFE
Частота : 48,0 КГц
Частота кадров : 31,250 кадров/сек (1536 SPF)
Битовая глубина : 16 бит
Метод сжатия : С потерями
Задержка видео : 1 с. 24 мс.
Размер потока : 437 Мбайт (9%)
Заголовок : Українська
Язык : Ukrainian
ServiceKind/Strin : Complete Main
Default : Нет
Forced : Нет

Аудио #3
Идентификатор : 4
Формат : AC-3
Формат/Информация : Audio Coding 3
Идентификатор кодека : A_AC3
Продолжительность : 1 ч. 35 м.
Вид битрейта : Постоянный
Битрейт : 640 Кбит/сек
Каналы : 6 каналов
Расположение каналов : Front: L C R, Side: L R, LFE
Частота : 48,0 КГц
Частота кадров : 31,250 кадров/сек (1536 SPF)
Битовая глубина : 16 бит
Метод сжатия : С потерями
Задержка видео : 1 с. 0 мс.
Размер потока : 437 Мбайт (9%)
Заголовок : English
Язык : English
ServiceKind/Strin : Complete Main
Default : Нет
Forced : Нет

Текст #1
Идентификатор : 5
Формат : UTF-8
Идентификатор кодека : S_TEXT/UTF8
Идентификатор кодека/Информация : UTF-8 Plain Text
Продолжительность : 1 ч. 5 м.
Битрейт : 1 бит/сек
ElementCount : 19
Размер потока : 806 байт (0%)
Заголовок : Русский (форсированный)
Язык : Russian
Default : Да
Forced : Нет

Текст #2
Идентификатор : 6
Формат : UTF-8
Идентификатор кодека : S_TEXT/UTF8
Идентификатор кодека/Информация : UTF-8 Plain Text
Продолжительность : 1 ч. 28 м.
Битрейт : 121 бит/сек
ElementCount : 1286
Размер потока : 78,7 Кбайт (0%)
Заголовок : Русский
Язык : Russian
Default : Нет
Forced : Нет

Текст #3
Идентификатор : 7
Формат : UTF-8
Идентификатор кодека : S_TEXT/UTF8
Идентификатор кодека/Информация : UTF-8 Plain Text
Продолжительность : 1 ч. 10 м.
Битрейт : 1 бит/сек
ElementCount : 21
Размер потока : 920 байт (0%)
Заголовок : Українська (форсований)
Язык : Ukrainian
Default : Нет
Forced : Нет

Текст #4
Идентификатор : 8
Формат : UTF-8
Идентификатор кодека : S_TEXT/UTF8
Идентификатор кодека/Информация : UTF-8 Plain Text
Продолжительность : 1 ч. 28 м.
Битрейт : 114 бит/сек
ElementCount : 1287
Размер потока : 74,0 Кбайт (0%)
Заголовок : Українська
Язык : Ukrainian
Default : Нет
Forced : Нет

Текст #5
Идентификатор : 9
Формат : UTF-8
Идентификатор кодека : S_TEXT/UTF8
Идентификатор кодека/Информация : UTF-8 Plain Text
Продолжительность : 1 ч. 34 м.
Битрейт : 77 бит/сек
ElementCount : 1471
Размер потока : 54,0 Кбайт (0%)
Заголовок : English (SDH)
Язык : English
Default : Нет
Forced : Нет

Текст #6
Идентификатор : 10
Формат : UTF-8
Идентификатор кодека : S_TEXT/UTF8
Идентификатор кодека/Информация : UTF-8 Plain Text
Продолжительность : 1 ч. 28 м.
Битрейт : 73 бит/сек
ElementCount : 1294
Размер потока : 47,2 Кбайт (0%)
Заголовок : English
Язык : English
Default : Нет
Forced : Нет

Меню
00:00:00.000 : en: 01
00:06:20.589 : en: 02
00:10:03.436 : en: 03
00:15:58.416 : en: 04
00:22:50.536 : en: 05
00:28:01.555 : en: 06
00:32:11.138 : en: 07
00:39:02.757 : en: 08
00:45:12.752 : en: 09
00:52:24.058 : en: 10
00:56:37.394 : en: 11
01:04:30.575 : en: 12
01:10:14.877 : en: 13
01:17:45.786 : en: 14
01:25:55.942 : en: 15

pibit.top



Скачать Мегамозг через торрент https://c.radikal.ru/c25/2001/25/56b81c704c53.jpg Скачать фильм Мегамозг через торрент бесплантно в хорошем качестве Описание: Мегамозг — самый гениальный и самый неудачливый злодей в мире. Вот уже много лет он пытается покорить Метро-Сити самыми ... 9.9 10 7
Торрент: Зарегистрирован [2020-01-19 04:56] · скачан: 106 раз
Статус: √ проверено
Размер: 4.54 GB
Как cкачать? Как скачать Мегамозг через торрент | qTorrent

% Раздел Тема Автор DL S | L
3D Мультфильмы [ 13.18 GB ] Мегамозг / Megamind [2010 BDRip 1080p ] sterlit Скачать
1 | 0
Иностранные мультфильмы [ 1.37 GB ] Мегамозг / Megamind [2010 мультфильм HDRip лицензия] Lil Badun Скачать
2 | 0
Зарубежные Мультфильмы (BDRip 1080p, 720p, Blu-ray, BD-Remux) [ 5.64 GB ] Мегамозг / Megamind [2010 мультфильм BDRip лицензия] DEVI Скачать
1 | 0
Иностранные мультфильмы [ 1.46 GB ] Мегамозг / Megamind [2010 мультфильм HDRip-AVC] от R.G. nICE Films Demonessa Скачать
1 | 0
3D Мультфильмы [ 6.25 GB ] Мегамозг 3D / Megamind 3D [2010 мультфильм BDRip лицензия] SideBySide / Горизонтальная стереопара Slipvit Скачать
1 | 0
Короткометражные мультфильмы (HD Video) [ 563 MB ] Мегамозг: Кнопка Гибели / Megamind: The Button of Doom [Саймон Дж. Смит] [2011 BDRip 720p] Romeo0502 Скачать
1 | 0
3D Мультфильмы [ 1.37 GB ] Мегамозг 3D / Megamind 3D [2010 мультфильм HDRip] 3D: Анаглиф red-cyan slaventi-69 Скачать
1 | 0

28-11-2019 20:33  

Отключить всю рекламу на сайте

    Дорогой пользователь! Огромная просьба, поблагодарите релизера, оцените раздачу и оставьте свои комментарий, если Вы скачали Мегамозг через торрент бесплатно! Внесите свою лепту в развитие PiratBit!
    Комментировать посты могут только пользователи прошедшие не сложную регистрацию
    Показать сообщения:    

    Мегамозг через торрент
    Скачать бесплатно Мегамозг
    Мегамозг скачать торрент
    Мегамозг смотреть онлайн
    Cкачать фильм Мегамозг бесплатно
    Мегамозг скачать торрент в хорошем качестве
    Мегамозг смотреть онлайн бесплатно в хорошем качестве


    Вы не можете начинать темы
    Вы не можете отвечать на сообщения
    Вы не можете редактировать свои сообщения
    Вы не можете удалять свои сообщения
    Вы не можете голосовать в опросах
    Вы не можете прикреплять файлы к сообщениям
    Вы можете скачивать файлы