Ссылка на приватное зеркало всего за 1$. Внимание количество ограничено!!!

iTunes

1+1

iTunes

мы

MV0

1

WEB-DLRip

Джокер

Пифагор

Ведьмак / The Witcher сериал

iTunes

ПШазам

iTunes

Оно 2

iTunes

30
pack

Вам бонус

ВАЖНО

!!Акция!!

Alien_RageХит недели

RePack

Resident Evil 21

ИГРА 18+

pack

RePack

jed

!!Акция!!

Alien_Rage

RePack

fifa19

RePack

Assassins Creed: Odyssey

RePack

NEED FOR SPEED™ PAYBACK

4 сезон

9 сезон

Бесстыжие 9 сезон

Все сериалы

все сериалы на PB.wtf

RePack

FAR CRY 5
  

Звёздный путь: Пикар / Star Trek: Picard / Сезон: 1 / Серии: 1-5 из 10 (Ханель М. Кулпеппер, Джонатан Фрейкс, Акива Голдсман) [2020, Фантастика, боевик, драма, приключения, WEB-DLRip] MVO [SDI Media] pibit.top

Звёздный путь: Пикар через торрент pibit.top

Раздают: 6 [ 285 KB/s ] Качают: 5 [ 0 KB/s ]
Размер: 3.97 GB | Добавлен: 6 д. назад | Торрент скачан:28 раз
Скачать  

24-01-2020 08:10 Звёздный путь: Пикар Скачать торрент  

Звёздный путь: Пикар | Star Trek: Picard
Год выпуска: 2020
Страна: США
Жанр: Фантастика, боевик, драма, приключения
Продолжительность: ~ 00:48:00
Перевод: Профессиональный (многоголосый) | SDI Media
Субтитры: Русские (форсированные, полные), английские

Режиссер: Ханель М. Кулпеппер, Джонатан Фрейкс, Акива Голдсман

rating


В ролях: Патрик Стюарт, Сантьяго Кабрера, Иза Брионес, Элисон Пилл, Гарри Тредэвэй, Мишель Херд, Ребекка Висоцки, Джейми МакШейн, Орла Брэйди

Описание: Спустя 15 лет жизнь некогда бороздившего космические просторы Жана-Люка Пикара, кажется, стала совсем спокойной. Однако вскоре ему придётся покинуть насиженное место и отправиться навстречу очередным приключениям.

Качество: WEB-DLRip
Формат: AVI

Видео: 720x304, XviD ~1800 kbps avg, 0.34 bit/pixel
Аудио Rus: 48 kHz, AC3, 3/2 (L,C,R,l,r) + LFE ch, ~384 kbps avg
Аудио Eng: 48 kHz, AC3, 3/2 (L,C,R,l,r) + LFE ch, ~384 kbps avg
скриншот  скриншот  скриншот  скриншот  

Общее
Полное имя : C:\Star Trek Picard\Star.Trek.Picard.s01e01.avi
Формат : AVI
Формат/Информация : Audio Video Interleave
Размер файла : 819 Мбайт
Продолжительность : 44 м. 18 с.
Общий поток : 2585 Кбит/сек
Программа кодирования : VirtualDubMod 1.5.10.2 (build 2540/release)
Библиотека кодирования : VirtualDubMod build 2540/release

Видео
Идентификатор : 0
Формат : MPEG-4 Visual
Профиль формата : Advanced [email protected]
Настройки формата : BVOP1 / Custom Matrix
Параметр BVOP формата : 1
Параметр QPel формата : Нет
Параметр GMC формата : Без точки перехода
Параметр матрицы формата : Выборочная
Идентификатор кодека : XVID
Идентификатор кодека/Подсказка : XviD
Продолжительность : 44 м. 18 с.
Битрейт : 1803 Кбит/сек
Ширина : 720 пикселей
Высота : 304 пикселя
Соотношение сторон : 2,35:1
Частота кадров : 23,976 (24000/1001) кадра/сек
Цветовое пространство : YUV
Субдискретизация насыщенности : 4:2:0
Битовая глубина : 8 бит
Тип развёртки : Прогрессивная
Метод сжатия : С потерями
Бит/(Пиксели*Кадры) : 0.344
Размер потока : 571 Мбайт (70%)
Библиотека кодирования : XviD 73

Аудио #1
Идентификатор : 1
Формат : AC-3
Формат/Информация : Audio Coding 3
Коммерческое название : Dolby Digital
Идентификатор кодека : 2000
Продолжительность : 44 м. 18 с.
Вид битрейта : Постоянный
Битрейт : 384 Кбит/сек
Каналы : 6 каналов
ChannelLayout : L R C LFE Ls Rs
Частота : 48,0 КГц
Частота кадров : 31,250 кадров/сек (1536 SPF)
Битовая глубина : 16 бит
Метод сжатия : С потерями
Размер потока : 122 Мбайт (15%)
Выравнивание : Разделение по промежуткам
Продолжительность промежутка : 42 мс. (1,00 видеокадр)
Время предзагрузки промежутка : 500 мс.
ServiceKind/String : Complete Main

Аудио #2
Идентификатор : 2
Формат : AC-3
Формат/Информация : Audio Coding 3
Коммерческое название : Dolby Digital
Идентификатор кодека : 2000
Продолжительность : 44 м. 18 с.
Вид битрейта : Постоянный
Битрейт : 384 Кбит/сек
Каналы : 6 каналов
ChannelLayout : L R C LFE Ls Rs
Частота : 48,0 КГц
Частота кадров : 31,250 кадров/сек (1536 SPF)
Битовая глубина : 16 бит
Метод сжатия : С потерями
Размер потока : 122 Мбайт (15%)
Выравнивание : Разделение по промежуткам
Продолжительность промежутка : 42 мс. (1,00 видеокадр)
Время предзагрузки промежутка : 500 мс.
ServiceKind/String : Complete Main

При каждом добавлении создаётся новый торрент. Чтобы начать докачку новой серии, пользователям необходимо сделать следующее:

остановить скачивание,
удалить старый торрент у себя из клиента (старые серии удалять не надо),
скачать новый торрент и запустить его у себя в клиенте вместо старого, при этом указать клиенту путь в старую папку куда и должно происходить скачивание новых серий.

Ваш клиент при этом должен произвести хеширование (проверку) старой папки (если не производит сам - помогите ему сделать это), и будет докачивать только те серии которых у вас ещё нет. Старые серии при этом не удаляются, а продолжают раздаваться!
Eсли вы уже удалили старые серии, то предотвратить повторную закачку старых серий можно, отжав галочку в соответствующих местах при запуске нового торрента. По возможности, желательно не удалять старые серии как можно дольше чтобы релизёр не столько продолжал раздавать старые серии, а смог сконцентрироваться на новых.
pibit.top



Скачать Звёздный путь: Пикар через торрент https://c.radikal.ru/c15/2001/d5/56f921963cc5.jpg Скачать фильм Звёздный путь: Пикар через торрент бесплантно в хорошем качестве Описание: Спустя 15 лет жизнь некогда бороздившего космические просторы Жана-Люка Пикара, кажется, стала совсем спокойной. Однако вскоре ... 8.3 10 11
Торрент: Зарегистрирован [2020-02-21 15:56] · скачан: 28 раз
Статус: √ проверено
Размер: 3.97 GB
Как cкачать? Как скачать Звёздный путь: Пикар через торрент | qTorrent

% Раздел Тема Автор DL S | L
Зарубежные сериалы [ 3.08 GB ] Звёздный путь: Пикар / Star Trek: Picard / Сезон: 1 / Серии: 1-5 из 10 [2020 WEB-DLRip] MVO [AlexFilm] bober100 Скачать
2 | 1
Зарубежные сериалы [ 6.94 GB ] Звёздный путь: Пикар / Star Trek: Picard / Сезон: 1 / Серии: 1-5 из 10 [2020 WEB-DL 720p] MVO [TVShows] bober100 Скачать
1 | 1
Зарубежные сериалы [ 15.08 GB ] Звёздный путь: Пикар / Star Trek: Picard / Сезон: 1 / Серии: 1-5 из 10 [2020 WEB-DL 1080p] MVO [TVShows] bober100 Скачать
1 | 0
Зарубежные сериалы [ 14.65 GB ] Звёздный путь: Пикар / Star Trek: Picard / Сезон: 1 / Серии: 1-5 из 10 [2020 WEB-DL 1080p] MVO [Jaskier] bober100 Скачать
2 | 1
Зарубежные сериалы [ 6.54 GB ] Звёздный путь: Пикар / Star Trek: Picard / Сезон: 1 / Серии: 1-5 из 10 [2020 WEB-DL 720p] MVO [Jaskier] bober100 Скачать
1 | 0
Зарубежные сериалы [ 2.57 GB ] Звёздный путь: Пикар / Star Trek: Picard / Сезон: 1 / Серии: 1-5 из 10 [2020 WEB-DLRip] MVO [Jaskier] bober100 Скачать
2 | 1
Зарубежные сериалы [ 4.05 GB ] Звёздный путь: Пикар / Star Trek: Picard / Сезон: 1 / Серии: 1-5 из 10 [2020 WEB-DLRip] MVO [Lostfilm] bober100 Скачать
3 | 1


Последний раз редактировалось: bober100 (2020-02-21 15:56), всего редактировалось 4 раз(а)

28-11-2019 20:33  

Отключить всю рекламу на сайте

26-01-2020 07:09 Звёздный путь: Пикар Скачать торрент  

спасибки давно ждал)))))pibit.top



    Дорогой пользователь! Огромная просьба, поблагодарите релизера, оцените раздачу и оставьте свои комментарий, если Вы скачали Звёздный путь: Пикар через торрент бесплатно! Внесите свою лепту в развитие PiratBit!
    Комментировать посты могут только пользователи прошедшие не сложную регистрацию
    Показать сообщения:    

    Звёздный путь: Пикар через торрент
    Скачать бесплатно Звёздный путь: Пикар
    Звёздный путь: Пикар скачать торрент
    Звёздный путь: Пикар смотреть онлайн
    Cкачать фильм Звёздный путь: Пикар бесплатно
    Звёздный путь: Пикар скачать торрент в хорошем качестве
    Звёздный путь: Пикар смотреть онлайн бесплатно в хорошем качестве


    Вы не можете начинать темы
    Вы не можете отвечать на сообщения
    Вы не можете редактировать свои сообщения
    Вы не можете удалять свои сообщения
    Вы не можете голосовать в опросах
    Вы не можете прикреплять файлы к сообщениям
    Вы можете скачивать файлы