Ссылка на приватное зеркало всего за 1$. Внимание количество ограничено!!!

iTunes

1+1

iTunes

мы

MV0

1

WEB-DLRip

Джокер

Пифагор

Ведьмак / The Witcher сериал

iTunes

ПШазам

iTunes

Оно 2

iTunes

30
pack

Вам бонус

ВАЖНО

!!Акция!!

Alien_RageХит недели

RePack

Resident Evil 21

ИГРА 18+

pack

RePack

jed

!!Акция!!

Alien_Rage

RePack

fifa19

RePack

Assassins Creed: Odyssey

RePack

NEED FOR SPEED™ PAYBACK

4 сезон

9 сезон

Бесстыжие 9 сезон

Все сериалы

все сериалы на PB.wtf

RePack

FAR CRY 5
  

Содержанки / Сезон: 2 / Серии: 1-4 из 8 (Дарья Жук) [2020, Триллер, эротика, WEBRip 720p] pibit.top

Содержанки через торрент pibit.top

Раздают: 8 [ 3 KB/s ] Качают: 1 [ 0 KB/s ]
Размер: 5.62 GB | Добавлен: 6 д. назад | Торрент скачан:9 раз
Скачать  

30-01-2020 05:21 Содержанки Скачать торрент  

Содержанки
Год выпуска: 2020
Страна: Россия
Жанр: Триллер, эротика
Продолжительность: ~ 00:50:00
Субтитры: отсутствуют

Режиссер: Дарья Жук

В ролях: Дарья Мороз, Софья Эрнст, Сергей Бурунов, Владимир Мишуков, Александр Кузнецов (IX), Марина Зудина, Семён Штейнберг, Пётр Скворцов, Ольга Сутулова, Леонид Бичевин, Ирина Старшенбаум, Александра Ребенок, Сабина Ахмедова, Игорь Гордин, Сергей Чонишвили, Александра Ревенко, Григорий Верник, Игорь Миркурбанов, Один Ланд Байрон, Константин Лавроненко, Виктор Вержбицкий, Игорь Верник, Юрий Чурсин, Александр Молочников, Любовь Аксёнова

Описание: В новом сезоне зрители узнают, получится ли у Лены и карьеристки Даши, приехавшей в Москву из Саратова, найти себя в мире больших денег и какую цену за эту новую жизнь им придётся заплатить. Не пожалеет ли Лена о том, что с лёгкостью разорвала рутинный, но стабильный брак и ушла к богатому, но что-то скрывающему олигарху? Получится ли у Даши открыть свою галерею и удержаться в Москве без помощи чиновника Игоря? Наконец, сможет ли бывший коллега Лены Макс раскрыть череду убийств, и замешан ли в них олигарх Ольховский?



Качество: WEBRip 720p
Формат: MKV

Видео: MPEG-4 AVC, ~ 4500 Кбит/с, 1280x720, 25 кадр/с
Аудио: 48.0 kHz, AC3 Dolby Digital, 2/0 (L,R) ch, ~ 192 kbps
скриншот  скриншот  скриншот  скриншот  скриншот  

Общее
Уникальный идентификатор : 172318449129390969916827914139581285640 (0x81A3537C438D5C66BB1DE20B0DB40508)
Полное имя : C:\Содержанки .S02.WEB-DL 720p. Files-x\01. Содержанки .S02.WEB-DL 720p. Files-x.mkv
Формат : Matroska
Версия формата : Version 2
Размер файла : 1,58 Гбайт
Продолжительность : 48 м. 35 с.
Общий поток : 4646 Кбит/сек
Дата кодирования : UTC 2020-01-29 22:16:00
Программа кодирования : mkvmerge v8.3.0 ('Over the Horizon') 32bit
Библиотека кодирования : libebml v1.3.1 + libmatroska v1.4.2

Видео
Идентификатор : 1
Формат : AVC
Формат/Информация : Advanced Video Codec
Профиль формата : [email protected]
Настройки формата : CABAC / 4 Ref Frames
Параметр CABAC формата : Да
Параметр RefFrames формата : 4 кадра
Идентификатор кодека : V_MPEG4/ISO/AVC
Продолжительность : 48 м. 35 с.
Битрейт : 4500 Кбит/сек
Ширина : 1280 пикселей
Высота : 720 пикселей
Соотношение сторон : 16:9
Режим частоты кадров : Постоянный
Частота кадров : 25,000 кадров/сек
Цветовое пространство : YUV
Субдискретизация насыщенности : 4:2:0
Битовая глубина : 8 бит
Тип развёртки : Прогрессивная
Бит/(Пиксели*Кадры) : 0.195
Размер потока : 1,48 Гбайт (94%)
Библиотека кодирования : x264 core 142 r2431+42 c69a006 tMod [[email protected] X86_64]
Настройки программы : cabac=1 / ref=4 / deblock=1:0:0 / analyse=0x3:0x133 / me=hex / subme=2 / psy=1 / fade_compensate=0.00 / psy_rd=1.00:0.00 / mixed_ref=1 / me_range=16 / chroma_me=1 / trellis=2 / 8x8dct=1 / cqm=0 / deadzone=21,11 / fast_pskip=0 / chroma_qp_offset=0 / threads=24 / lookahead_threads=5 / sliced_threads=0 / nr=0 / decimate=1 / interlaced=0 / bluray_compat=0 / constrained_intra=0 / fgo=0 / bframes=2 / b_pyramid=2 / b_adapt=2 / b_bias=0 / direct=1 / weightb=1 / open_gop=0 / weightp=2 / keyint=240 / keyint_min=24 / scenecut=40 / intra_refresh=0 / rc=abr / mbtree=0 / bitrate=4500 / ratetol=1.0 / qcomp=0.60 / qpmin=0:0:0 / qpmax=69:69:69 / qpstep=4 / ip_ratio=1.40 / pb_ratio=1.30 / aq=1:1.00 / aq-sensitivity=10.00 / aq-factor=1.00:1.00:1.00 / aq2=0 / aq3=0
Default : Да
Forced : Нет

Аудио
Идентификатор : 2
Формат : AC-3
Формат/Информация : Audio Coding 3
Коммерческое название : Dolby Digital
Идентификатор кодека : A_AC3
Продолжительность : 48 м. 35 с.
Вид битрейта : Постоянный
Битрейт : 192 Кбит/сек
Каналы : 2 канала
ChannelLayout : L R
Частота : 48,0 КГц
Частота кадров : 31,250 кадров/сек (1536 SPF)
Метод сжатия : С потерями
Размер потока : 66,7 Мбайт (4%)
ServiceKind/String : Complete Main
Default : Да
Forced : Нет

Внимание! Раздача ведётся путём добавления новых серий; при каждом добавлении создfётся новый торрент. Чтобы начать докачку новой серии, пользователям необходимо сделать следующее: (1) остановить скачивание, (2) удалить старый торрент у себя из клиента (старые серии удалять не надо), (3) скачать новый торрент и запустить его у себя в клиенте вместо старого, при этом указать клиенту путь в старую папку куда и должно происходить скачивание новых серий.

Ваш клиент при этом должен произвести хеширование (проверку) старой папки (если не производит сам - помогите ему сделать это), и будет докачивать только те серии которых у вас ещё нет. Старые серии при этом не удаляются, а продолжают раздаваться!

Eсли вы уже удалили старые серии, то предотвратить повторную закачку старых серий можно, отжав галочку в соответсвующих местах при запуске нового торрента.
pibit.top



Скачать Содержанки через торрент https://d.radikal.ru/d13/2001/53/3517ff793730.jpg Скачать фильм Содержанки через торрент бесплантно в хорошем качестве Описание: В новом сезоне зрители узнают, получится ли у Лены и карьеристки Даши, приехавшей в Москву из Саратова, найти себя в мире больших ... 9.7 10 12
Торрент: Зарегистрирован [2020-02-21 18:54] · скачан: 9 раз
Статус: √ проверено
Размер: 5.62 GB
Как cкачать? Как скачать Содержанки через торрент | qTorrent

% Раздел Тема Автор DL S | L
Наши сериалы [ 2.3 GB ] Содержанки / Сезон: 2 / Серии: 1-4 из 8 [2020 эротика WEBRip-AVC] bober100 Скачать
7 | 2

28-11-2019 20:33  

Отключить всю рекламу на сайте

    Дорогой пользователь! Огромная просьба, поблагодарите релизера, оцените раздачу и оставьте свои комментарий, если Вы скачали Содержанки через торрент бесплатно! Внесите свою лепту в развитие PiratBit!
    Комментировать посты могут только пользователи прошедшие не сложную регистрацию
    Показать сообщения:    

    Содержанки через торрент
    Скачать бесплатно Содержанки
    Содержанки скачать торрент
    Содержанки смотреть онлайн
    Cкачать фильм Содержанки бесплатно
    Содержанки скачать торрент в хорошем качестве
    Содержанки смотреть онлайн бесплатно в хорошем качестве


    Вы не можете начинать темы
    Вы не можете отвечать на сообщения
    Вы не можете редактировать свои сообщения
    Вы не можете удалять свои сообщения
    Вы не можете голосовать в опросах
    Вы не можете прикреплять файлы к сообщениям
    Вы можете скачивать файлы