Ссылка на приватное зеркало всего за 1$. Внимание количество ограничено!!!

iTunes

1+1

iTunes

мы

MV0

1

WEB-DLRip

Джокер

Пифагор

Ведьмак / The Witcher сериал

iTunes

ПШазам

iTunes

Оно 2

iTunes

30
pack

Вам бонус

ВАЖНО

!!Акция!!

Alien_RageХит недели

RePack

Resident Evil 21

ИГРА 18+

pack

RePack

jed

!!Акция!!

Alien_Rage

RePack

fifa19

RePack

Assassins Creed: Odyssey

RePack

NEED FOR SPEED™ PAYBACK

4 сезон

9 сезон

Бесстыжие 9 сезон

Все сериалы

все сериалы на PB.wtf

RePack

FAR CRY 5
  

Семейка Аддамс / The Addams Family (Грег Тирнан, Конрад Вернон) [2019, мультфильм, ужасы, фэнтези, комедия, семейный, BDRip 1080p] AVO [М. Яроцкий (Kyberpunk)] pibit.top

Семейка Аддамс через торрент pibit.top

Раздают: 6 [ 1 MB/s ]
Размер: 8.75 GB | Добавлен: 29 д. назад | Торрент скачан:68 раз
Скачать  

30-01-2020 15:02 Семейка Аддамс Скачать торрент  

Семейка Аддамс | The Addams Family«Думаете, ваша семейка странная?»
Год выпуска: 2019
Страна: Канада, США
Студия: Metro-Goldwyn-Mayer (MGM), Cinesite Animation
Жанр: мультфильм, ужасы, фэнтези, комедия, семейный
Продолжительность: 01:27:01
Перевод: Авторский | М. Яроцкий (Kyberpunk)
Субтитры: Русские (форс. (на песни)), английские, французские

Режиссер: Грег Тирнан, Конрад Вернон

rating


В ролях: Оскар Айзек, Шарлиз Терон, Хлоя Грейс Морец, Финн Вулфард, Ник Кролл, Снуп Догг, Бетт Мидлер, Эллисон Дженни, Мартин Шорт, Кэтрин О Хара

Описание: Папа любит долгие прогулки в ненастную погоду. Мама считает, что черный цвет самый яркий. У детей кладбище - любимая площадка для игр. Бабушка выпивает пару капель яда перед сном. Вы все еще думаете, что ваши родственники странные? Знакомьтесь - семейка Аддамс.

Качество: BDRip 1080p
Формат: MKV

Видео: MPEG-4 AVC, 1920x1036, 11.6 Mbit/s, 23.976 fps
Аудио #01: 48 kHz, DTS, 5.1, 1510 Kbps | Авторский | RUS |
Аудио #02: 48 kHz, AC3, 5.1, 640 Kbps | Авторский | RUS |
Аудио #03: 48 kHz, DTS-HD MA, 7.1, 4319 Kbps | Оригинал | ENG |
скриншот  скриншот  скриншот  скриншот  скриншот  

General
Unique ID : 276423029056216235006823512246262814582 (0xCFF5238ECDB4500E3B3155017BE5D776)
Complete name : D:The.Addams.Family.2019.BDRip.1080p.seleZen.mkv
Format : Matroska
Format version : Version 4
File size : 8.75 GiB
Duration : 1 h 27 min
Overall bit rate : 14.4 Mb/s
Movie name : The.Addams.Family.2019 from селезень
Encoded date : UTC 2020-01-30 14:45:53
Writing application : mkvmerge v41.0.0 ('Smarra') 64-bit
Writing library : libebml v1.3.9 + libmatroska v1.5.2

Video
ID : 1
Format : AVC
Format/Info : Advanced Video Codec
Format profile : [email protected]
Format settings : CABAC / 4 Ref Frames
Format settings, CABAC : Yes
Format settings, Reference : 4 frames
Codec ID : V_MPEG4/ISO/AVC
Duration : 1 h 27 min
Bit rate : 11.6 Mb/s
Width : 1 920 pixels
Height : 1 036 pixels
Display aspect ratio : 1.85:1
Frame rate mode : Constant
Frame rate : 23.976 (24000/1001) FPS
Color space : YUV
Chroma subsampling : 4:2:0
Bit depth : 8 bits
Scan type : Progressive
Bits/(Pixel*Frame) : 0.243
Stream size : 7.05 GiB (81%)
Writing library : x264 core 159 r2991+50 29469ee t_mod_New [[email protected] X86_64]
Encoding settings : cabac=1 / ref=4 / deblock=1:-3:-3 / analyse=0x3:0x133 / me=umh / subme=10 / psy=1 / fade_compensate=0.00 / psy_rd=0.85:0.00 / mixed_ref=1 / me_range=32 / chroma_me=1 / trellis=2 / 8x8dct=1 / cqm=0 / deadzone=21,11 / fast_pskip=0 / chroma_qp_offset=-2 / threads=12 / lookahead_threads=2 / sliced_threads=0 / nr=0 / decimate=0 / interlaced=0 / bluray_compat=0 / constrained_intra=0 / fgo=0 / bframes=8 / b_pyramid=2 / b_adapt=2 / b_bias=0 / direct=3 / weightb=1 / open_gop=0 / weightp=2 / keyint=250 / keyint_min=23 / scenecut=40 / intra_refresh=0 / rc=crf / mbtree=0 / crf=16.3000 / qcomp=0.60 / qpmin=0:0:0 / qpmax=69:69:69 / qpstep=4 / ip_ratio=1.25 / pb_ratio=1.15 / aq=3:1.00 / aq-sensitivity=10.00 / aq-factor=1.00:1.00:1.00 / aq2=0 / aq3=0
Language : English
Default : Yes
Forced : No

Audio #1
ID : 2
Format : DTS
Format/Info : Digital Theater Systems
Codec ID : A_DTS
Duration : 1 h 27 min
Bit rate mode : Constant
Bit rate : 1 509 kb/s
Channel(s) : 6 channels
Channel layout : C L R Ls Rs LFE
Sampling rate : 48.0 kHz
Frame rate : 93.750 FPS (512 SPF)
Bit depth : 24 bits
Compression mode : Lossy
Stream size : 939 MiB (10%)
Title : AVO (Kyberpunk)
Language : Russian
Default : Yes
Forced : Yes

Audio #2
ID : 3
Format : AC-3
Format/Info : Audio Coding 3
Commercial name : Dolby Digital
Codec ID : A_AC3
Duration : 1 h 27 min
Bit rate mode : Constant
Bit rate : 640 kb/s
Channel(s) : 6 channels
Channel layout : L R C LFE Ls Rs
Sampling rate : 48.0 kHz
Frame rate : 31.250 FPS (1536 SPF)
Compression mode : Lossy
Stream size : 398 MiB (4%)
Title : AVO (Kyberpunk)
Language : Russian
Service kind : Complete Main
Default : No
Forced : No

Audio #3
ID : 4
Format : AC-3
Format/Info : Audio Coding 3
Commercial name : Dolby Digital
Codec ID : A_AC3
Duration : 1 h 27 min
Bit rate mode : Constant
Bit rate : 640 kb/s
Channel(s) : 6 channels
Channel layout : L R C LFE Ls Rs
Sampling rate : 48.0 kHz
Frame rate : 31.250 FPS (1536 SPF)
Compression mode : Lossy
Stream size : 398 MiB (4%)
Title : DD5.1 @640 Kbps - Pro Encoder
Language : English
Service kind : Complete Main
Default : No
Forced : No

Text #1
ID : 5
Format : UTF-8
Codec ID : S_TEXT/UTF8
Codec ID/Info : UTF-8 Plain Text
Duration : 53 min 24 s
Bit rate : 7 b/s
Count of elements : 56
Stream size : 2.81 KiB (0%)
Title : Songs (Kyberpunk)
Language : Russian
Default : Yes
Forced : Yes

Text #2
ID : 6
Format : UTF-8
Codec ID : S_TEXT/UTF8
Codec ID/Info : UTF-8 Plain Text
Duration : 1 h 25 min
Bit rate : 69 b/s
Count of elements : 1436
Stream size : 43.3 KiB (0%)
Title : Full
Language : English
Default : No
Forced : No

Text #3
ID : 7
Format : UTF-8
Codec ID : S_TEXT/UTF8
Codec ID/Info : UTF-8 Plain Text
Duration : 1 h 25 min
Bit rate : 72 b/s
Count of elements : 1228
Stream size : 45.6 KiB (0%)
Title : Full
Language : French
Default : No
Forced : No

Menu
00:00:00.000 : :Chapter 01
00:05:08.558 : :Chapter 02
00:10:35.468 : :Chapter 03
00:15:46.946 : :Chapter 04
00:19:35.257 : :Chapter 05
00:25:14.805 : :Chapter 06
00:29:25.764 : :Chapter 07
00:34:20.558 : :Chapter 08
00:39:46.968 : :Chapter 09
00:45:01.741 : :Chapter 10
00:49:07.611 : :Chapter 11
00:53:40.926 : :Chapter 12
00:56:36.560 : :Chapter 13
01:00:01.014 : :Chapter 14
01:03:45.947 : :Chapter 15
01:06:02.458 : :Chapter 16
01:10:54.584 : :Chapter 17
01:18:09.476 : :Chapter 18
01:20:21.316 : :Chapter 19
01:21:11.325 : :Chapter 20

pibit.top



Скачать Семейка Аддамс через торрент https://img16.lostpic.net/2020/01/30/07a383fdd6f3c52139a036f355f5318e.jpg Скачать фильм Семейка Аддамс через торрент бесплантно в хорошем качестве Описание: Папа любит долгие прогулки в ненастную погоду. Мама считает, что черный цвет самый яркий. У детей кладбище - любимая площадка для ... 8.2 10 5
Торрент: Зарегистрирован [2020-01-30 15:02] · скачан: 68 раз
Статус: √ проверено
Размер: 8.75 GB
Как cкачать? Как скачать Семейка Аддамс через торрент | qTorrent

% Раздел Тема Автор DL S | L
Ultra HD (UHD: 2K, 4K, 8K) [ 47.09 GB ] Семейка Аддамс / The Addams Family [2019 мультфильм UHD BDRemux 2160p] +AVO [М. Яроцкий ] bober100 Скачать
2 | 0
Зарубежные Мультфильмы (BDRip 1080p, 720p, Blu-ray, BD-Remux) [ 23.84 GB ] Семейка Аддамс / The Addams Family [2019 мультфильм BD Remux 1080p] DUB +AVO [М. Яроцкий ] bober100 Скачать
4 | 0
Иностранные мультфильмы [ 1.57 GB ] Семейка Аддамс / The Addams Family [2019 мультфильм WEB-DLRip-AVC] DUB [Онлайн кинотеатр] - ExKinoRay Enigma2010 Скачать
238 | 4
Иностранные мультфильмы [ 1.42 GB ] Семейка Аддамс / The Addams Family [2019 мультфильм BDRip] - Twi7ter Скачать
78 | 6
Зарубежные Мультфильмы (BDRip 1080p, 720p, Blu-ray, BD-Remux) [ 6.37 GB ] Семейка Аддамс / The Addams Family [2019 мультфильм BDRip 720p] DUB +AVO [М. Яроцкий ] bober100 Скачать
10 | 1
Зарубежные Мультфильмы (BDRip 1080p, 720p, Blu-ray, BD-Remux) [ 9.1 GB ] Семейка Аддамс / The Addams Family [2019 мультфильм BDRip 1080p] DUB +AVO [М. Яроцкий ] bober100 Скачать
4 | 0
Иностранные мультфильмы [ 2.01 GB ] Семейка Аддамс / The Addams Family [2019 мультфильм BDRip-AVC] - ExKinoRay Enigma2010 Скачать
205 | 24

28-11-2019 20:33  

Отключить всю рекламу на сайте

    Дорогой пользователь! Огромная просьба, поблагодарите релизера, оцените раздачу и оставьте свои комментарий, если Вы скачали Семейка Аддамс через торрент бесплатно! Внесите свою лепту в развитие PiratBit!
    Комментировать посты могут только пользователи прошедшие не сложную регистрацию
    Показать сообщения:    

    Семейка Аддамс через торрент
    Скачать бесплатно Семейка Аддамс
    Семейка Аддамс скачать торрент
    Семейка Аддамс смотреть онлайн
    Cкачать фильм Семейка Аддамс бесплатно
    Семейка Аддамс скачать торрент в хорошем качестве
    Семейка Аддамс смотреть онлайн бесплатно в хорошем качестве


    Вы не можете начинать темы
    Вы не можете отвечать на сообщения
    Вы не можете редактировать свои сообщения
    Вы не можете удалять свои сообщения
    Вы не можете голосовать в опросах
    Вы не можете прикреплять файлы к сообщениям
    Вы можете скачивать файлы