Ссылка на приватное зеркало всего за 1$. Внимание количество ограничено!!!

iTunes

1+1

iTunes

мы

MV0

1

WEB-DLRip

Джокер

Пифагор

Ведьмак / The Witcher сериал

iTunes

ПШазам

iTunes

Оно 2

iTunes

30
pack

Вам бонус

ВАЖНО

!!Акция!!

Alien_RageХит недели

RePack

Resident Evil 21

ИГРА 18+

pack

RePack

jed

!!Акция!!

Alien_Rage

RePack

fifa19

RePack

Assassins Creed: Odyssey

RePack

NEED FOR SPEED™ PAYBACK

4 сезон

9 сезон

Бесстыжие 9 сезон

Все сериалы

все сериалы на PB.wtf

RePack

FAR CRY 5
  

Без любви / The Loveless (Кэтрин Бигелоу, Монти Монтгомери) [1981, драма, BDRip 720p by msltel] VO pibit.top

Без любви через торрент pibit.top

Раздают: 2 [ 0 KB/s ]
Размер: 3.33 GB | Добавлен: 20 д. назад | Торрент скачан:11 раз
Скачать  

09-02-2020 07:03 Без любви Скачать торрент  

Название: Без любви
Оригинальное название: The Loveless
Год выпуска: 1981
Страна: США
Жанр: драма
Продолжительность: 01:22:29
Перевод: любительский одноголосый
Режиссер: Кэтрин Бигелоу, Монти Монтгомери
В ролях: Уиллем Дефо, Роберт Гордон, Марин Кантер, Дж. Дон Фергюсон, Тина Л’Хоцки, Лоуренс Матаресе, Дэнни Розен, Филлип Кимбро, Кен Колл, Лиз Гэнс

О фильме: Байкер Вэнс приезжает в небольшой южный городок на встречу с членами своей банды. У ребят есть цель: они собираются поучаствовать в гонках в местечке под названием Дэйтон. Но у них барахлит один байк, и они решают задержаться в этом тихом городке, чтобы заняться ремонтом мотоцикла. А пока ребята занимаются ремонтом, Вэнс флиртует с дочкой богатенького горожанина...



Качество: BDRip 720p
Формат: MKV
Видео: MPEG-4 AVC, 5393 Kбит/с, 1280x690
Аудио 1: русский, AC3, 192 kbps, 2 ch, 48 kHz [закадровый одноголосый, Виктор Береговых по переводу М.Васильева aka lakdhf & В. Воронцова aka Bazilio 1980]
Аудио 2: английский, AC3, 192 kbps, 2 ch, 48 kHz [оригинал]
Субтитры 1: русские
Субтитры 2: английские
Главы/чаптеры
Общее
Уникальный идентификатор : 233756395734709674097547235453384639503 (0xAFDBD81F0C391808A385DD0E3AA1C40F)
Полное имя : D:\Video\Без любви.1981.BDRip 720p by msltel.mkv
Формат : Matroska
Версия формата : Version 4
Размер файла : 3,33 Гбайт
Продолжительность : 1 ч. 22 м.
Общий поток : 5779 Кбит/сек
Название фильма : Rip by msltel
Дата кодирования : UTC 2020-02-08 10:49:02
Программа кодирования : mkvmerge v8.2.0 ('World of Adventure') 64bit
Библиотека кодирования : libebml v1.3.1 + libmatroska v1.4.2

Видео
Идентификатор : 1
Формат : AVC
Формат/Информация : Advanced Video Codec
Профиль формата : [email protected]
Настройки формата : CABAC / 9 Ref Frames
Параметр CABAC формата : Да
Параметр RefFrames формата : 9 кадров
Идентификатор кодека : V_MPEG4/ISO/AVC
Продолжительность : 1 ч. 22 м.
Битрейт : 5393 Кбит/сек
Ширина : 1280 пикселей
Высота : 690 пикселей
Соотношение сторон : 1,85:1
Режим частоты кадров : Постоянный
Частота кадров : 23,976 (24000/1001) кадра/сек
Цветовое пространство : YUV
Субдискретизация насыщенности : 4:2:0
Битовая глубина : 8 бит
Тип развёртки : Прогрессивная
Бит/(Пиксели*Кадры) : 0.255
Размер потока : 3,11 Гбайт (93%)
Библиотека кодирования : x264 core 157 r2969 d4099dd
Настройки программы : cabac=1 / ref=9 / deblock=1:-2:-1 / analyse=0x3:0x113 / me=umh / subme=9 / psy=1 / psy_rd=1.00:0.15 / mixed_ref=1 / me_range=32 / chroma_me=1 / trellis=1 / 8x8dct=1 / cqm=0 / deadzone=21,11 / fast_pskip=0 / chroma_qp_offset=-3 / threads=6 / lookahead_threads=1 / sliced_threads=0 / nr=0 / decimate=1 / interlaced=0 / bluray_compat=0 / constrained_intra=0 / bframes=12 / b_pyramid=2 / b_adapt=2 / b_bias=0 / direct=1 / weightb=1 / open_gop=0 / weightp=2 / keyint=230 / keyint_min=23 / scenecut=40 / intra_refresh=0 / rc_lookahead=40 / rc=crf / mbtree=0 / crf=21.5 / qcomp=0.60 / qpmin=0 / qpmax=69 / qpstep=4 / vbv_maxrate=50000 / vbv_bufsize=62500 / crf_max=0.0 / nal_hrd=none / filler=0 / ip_ratio=1.40 / pb_ratio=1.30 / aq=1:1.00
Язык : English
Default : Да
Forced : Нет

Аудио #1
Идентификатор : 2
Формат : AC-3
Формат/Информация : Audio Coding 3
Коммерческое название : Dolby Digital
Идентификатор кодека : A_AC3
Продолжительность : 1 ч. 22 м.
Вид битрейта : Постоянный
Битрейт : 192 Кбит/сек
Каналы : 2 канала
ChannelLayout : L R
Частота : 44,1 КГц
Частота кадров : 28,711 кадров/сек (1536 SPF)
Метод сжатия : С потерями
Размер потока : 113 Мбайт (3%)
Заголовок : Виктор Береговых по переводу М.Васильева aka lakdhf & В. Воронцова aka Bazilio 1980
Язык : Russian
ServiceKind/String : Complete Main
Default : Да
Forced : Нет

Аудио #2
Идентификатор : 3
Формат : AC-3
Формат/Информация : Audio Coding 3
Коммерческое название : Dolby Digital
Идентификатор кодека : A_AC3
Продолжительность : 1 ч. 22 м.
Вид битрейта : Постоянный
Битрейт : 192 Кбит/сек
Каналы : 1 канал
ChannelLayout : C
Частота : 48,0 КГц
Частота кадров : 31,250 кадров/сек (1536 SPF)
Метод сжатия : С потерями
Размер потока : 113 Мбайт (3%)
Заголовок : original
Язык : English
ServiceKind/String : Complete Main
Default : Нет
Forced : Нет

Текст #1
Идентификатор : 4
Формат : UTF-8
Идентификатор кодека : S_TEXT/UTF8
Идентификатор кодека/Информация : UTF-8 Plain Text
Продолжительность : 1 ч. 15 м.
Битрейт : 26 бит/сек
ElementCount : 289
Размер потока : 14,5 Кбайт (0%)
Заголовок : русские
Язык : Russian
Default : Нет
Forced : Нет

Текст #2
Идентификатор : 5
Формат : UTF-8
Идентификатор кодека : S_TEXT/UTF8
Идентификатор кодека/Информация : UTF-8 Plain Text
Продолжительность : 1 ч. 17 м.
Битрейт : 30 бит/сек
ElementCount : 549
Размер потока : 17,5 Кбайт (0%)
Заголовок : английские
Язык : English
Default : Нет
Forced : Нет

Меню
00:00:00.000 : en:Program Start / Main Titles
00:04:50.581 : en:Flat Tire
00:09:11.717 : en:Back in Action
00:13:49.327 : en:Truck Stop Town
00:17:31.633 : en:Three from the Road
00:21:32.290 : en:Motorcycle Storage
00:25:31.320 : en:Idle Time
00:29:21.342 : en:Garage Days Revisited
00:33:42.853 : en:Hot Rod Girl
00:38:46.031 : en:Beer Run
00:43:55.340 : en:Having Fun
00:48:48.216 : en:War Stories
00:51:37.051 : en:Teenage Love
00:56:29.969 : en:Dusk to Dawn
01:00:21.534 : en:Daytona Dreaming
01:04:50.260 : en:Trouble in Mind
01:09:08.226 : en:Striptease
01:12:29.678 : en:Checkout Time
01:17:18.716 : en:Family Tradition
01:19:22.423 : en:Moving On / End Credits
pibit.top



Скачать Без любви через торрент https://b.radikal.ru/b40/2002/f1/28ef57e55b75.jpg Скачать фильм Без любви через торрент бесплантно в хорошем качестве О фильме: Байкер Вэнс приезжает в небольшой южный городок на встречу с членами своей банды. У ребят есть цель: они собираются поучаствовать ... 10 10 1
Info! Золотая раздача, скачанное не засчитывается.
Торрент: Зарегистрирован [2020-02-09 07:03] · скачан: 11 раз
Статус: √ проверено
Размер: 3.33 GB
Как cкачать? Как скачать Без любви через торрент | qTorrent

% Раздел Тема Автор DL S | L
Фильмы [HD 720p, 1080p] (Звук Cam, VO, DVO) [ 10.56 GB ] Без любви / The Loveless [1981 BDRip 1080p by msltel] VO msltel Скачать
2 | 1
Фильмы до 2000 г. [ 1.77 GB ] Без любви / The Loveless [1981 BDRip-AVC by msltel] VO msltel Скачать
2 | 0

28-11-2019 20:33  

Отключить всю рекламу на сайте

    Дорогой пользователь! Огромная просьба, поблагодарите релизера, оцените раздачу и оставьте свои комментарий, если Вы скачали Без любви через торрент бесплатно! Внесите свою лепту в развитие PiratBit!
    Комментировать посты могут только пользователи прошедшие не сложную регистрацию
    Показать сообщения:    

    Без любви через торрент
    Скачать бесплатно Без любви
    Без любви скачать торрент
    Без любви смотреть онлайн
    Cкачать фильм Без любви бесплатно
    Без любви скачать торрент в хорошем качестве
    Без любви смотреть онлайн бесплатно в хорошем качестве


    Вы не можете начинать темы
    Вы не можете отвечать на сообщения
    Вы не можете редактировать свои сообщения
    Вы не можете удалять свои сообщения
    Вы не можете голосовать в опросах
    Вы не можете прикреплять файлы к сообщениям
    Вы можете скачивать файлы