Ссылка на приватное зеркало всего за 1$. Внимание количество ограничено!!!

iTunes

1+1

iTunes

мы

MV0

1

WEB-DLRip

Джокер

Пифагор

Ведьмак / The Witcher сериал

iTunes

ПШазам

iTunes

Оно 2

iTunes

30
pack

Вам бонус

ВАЖНО

!!Акция!!

Alien_RageХит недели

RePack

Resident Evil 21

ИГРА 18+

pack

RePack

jed

!!Акция!!

Alien_Rage

RePack

fifa19

RePack

Assassins Creed: Odyssey

RePack

NEED FOR SPEED™ PAYBACK

4 сезон

9 сезон

Бесстыжие 9 сезон

Все сериалы

все сериалы на PB.wtf

RePack

FAR CRY 5
  

Отражение радуги / Сезон: 1 / Серии: 1-12 из 12 (Тимур Кабулов) [2020, Детектив, триллер, SATRip] pibit.top

Отражение радуги через торрент pibit.top

Раздают: 2 [ 151 KB/s ]
Размер: 7.42 GB | Добавлен: 9 д. назад | Торрент скачан:21 раз
Скачать  

11-02-2020 03:09 Отражение радуги Скачать торрент  

Отражение радуги
Год выпуска: 2020
Страна: Россия
Жанр: Детектив, триллер
Продолжительность: ~ 00:50:00 серия
Субтитры: отсутствуют

Режиссер: Тимур Кабулов



В ролях: Андрей Мерзликин, Наталия Вдовина, Игорь Скляр, Владимир Юматов, Игорь Миркурбанов, Александра Бортич, Александр Макогон, Максим Литовченко, Владимир Стержаков, Фёдор Лавров, Евгения Осипова, Илья Древнов, Анатолий Кабулов (II), Виктория Маслова, Алина Титова, Александра Булычёва, Дмитрий Гудочкин, Екатерина Волкова, Артём Петров (II)

Описание: Главной героине предстоит пройти тяжелый и наполненный неожиданностями путь, чтобы найти свое счастье в этом сложном мире.

Качество: SATRip
Формат: AVI

Видео: 720x400 (1.80:1), 25 fps, XviD build 73 ~1650 kbps avg, 0.23 bit/pixel
Аудио: 48 kHz, MPEG Layer 3, 2 ch, ~192.00 kbps avg
скриншот  скриншот  скриншот  скриншот  

Общее
Полное имя : D:\Otrazhenie.radugi.2019.XviD.SATRip.25Kuzmich\Otrazhenie.radugi.e01.XviD.SATRip.25Kuzmich.avi
Формат : AVI
Формат/Информация : Audio Video Interleave
Размер файла : 666 Мбайт
Продолжительность : 50 м. 17 с.
Общий поток : 1852 Кбит/сек
Программа кодирования : VirtualDubMod 1.5.10.3 (build 2550/release)
Библиотека кодирования : VirtualDubMod build 2550/release

Видео
Идентификатор : 0
Формат : MPEG-4 Visual
Профиль формата : Advanced [email protected]
Параметр BVOP формата : 1
Параметр QPel формата : Нет
Параметр GMC формата : Без точки перехода
Параметр матрицы формата : Default (MPEG)
Идентификатор кодека : XVID
Идентификатор кодека/Подсказка : XviD
Продолжительность : 50 м. 17 с.
Битрейт : 1677 Кбит/сек
Ширина : 720 пикселей
Высота : 400 пикселей
Соотношение сторон : 16:9
Частота кадров : 25,000 кадров/сек
Цветовое пространство : YUV
Субдискретизация насыщенности : 4:2:0
Битовая глубина : 8 бит
Тип развёртки : Прогрессивная
Метод сжатия : С потерями
Бит/(Пиксели*Кадры) : 0.219
Размер потока : 567 Мбайт (85%)
Библиотека кодирования : XviD 73

Аудио
Идентификатор : 1
Формат : MPEG Audio
Версия формата : Version 1
Профиль формата : Layer 3
Режим : Joint stereo
Расширение режима : MS Stereo
Идентификатор кодека : 55
Идентификатор кодека/Подсказка : MP3
Продолжительность : 50 м. 17 с.
Вид битрейта : Постоянный
Битрейт : 192 Кбит/сек
Каналы : 2 канала
Частота : 48,0 КГц
Метод сжатия : С потерями
Размер потока : 69,1 Мбайт (10%)
Выравнивание : Соединение по промежуткам
Библиотека кодирования : LAME3.99r
Настройки программы : -m j -V 4 -q 2 -lowpass 18.6 -b 192

Внимание! Раздача ведётся путём добавления новых серий; при каждом добавлении создаётся новый торрент.
Чтобы начать докачку новой серии, пользователям необходимо сделать следующее:
1. Остановить скачивание;
2. Удалить старый торрент у себя из клиента (старые серии удалять не надо);
3. Скачать новый торрент и запустить его у себя в клиенте вместо старого, при этом указать клиенту путь в старую папку куда и должно происходить скачивание новых серий. Ваш клиент при этом должен произвести хеширование (проверку) старой папки и будет докачивать только те серии, которых у вас ещё нет. Старые серии при этом не удаляются, а продолжают раздаваться! Eсли вы уже удалили старые серии, то предотвратить повторную закачку старых серий можно, отжав галочку в соответствующих местах при запуске нового торрента.
pibit.top



Скачать Отражение радуги через торрент https://img15.lostpic.net/2020/02/11/88bf2368904f5438d09582f46ef2d08a.jpg Скачать фильм Отражение радуги через торрент бесплантно в хорошем качестве Описание: Главной героине предстоит пройти тяжелый и наполненный неожиданностями путь, чтобы найти свое счастье в этом сложном ... 9.5 10 4
Торрент: Зарегистрирован [2020-02-19 18:21] · скачан: 21 раз
Статус: √ проверено
Размер: 7.42 GB
Как cкачать? Как скачать Отражение радуги через торрент | qTorrent

28-11-2019 20:33  

Отключить всю рекламу на сайте

    Дорогой пользователь! Огромная просьба, поблагодарите релизера, оцените раздачу и оставьте свои комментарий, если Вы скачали Отражение радуги через торрент бесплатно! Внесите свою лепту в развитие PiratBit!
    Комментировать посты могут только пользователи прошедшие не сложную регистрацию
    Показать сообщения:    

    Отражение радуги через торрент
    Скачать бесплатно Отражение радуги
    Отражение радуги скачать торрент
    Отражение радуги смотреть онлайн
    Cкачать фильм Отражение радуги бесплатно
    Отражение радуги скачать торрент в хорошем качестве
    Отражение радуги смотреть онлайн бесплатно в хорошем качестве


    Вы не можете начинать темы
    Вы не можете отвечать на сообщения
    Вы не можете редактировать свои сообщения
    Вы не можете удалять свои сообщения
    Вы не можете голосовать в опросах
    Вы не можете прикреплять файлы к сообщениям
    Вы можете скачивать файлы