Ссылка на приватное зеркало всего за 1$. Внимание количество ограничено!!!

iTunes

1+1

iTunes

мы

MV0

1

WEB-DLRip

Джокер

Пифагор

Ведьмак / The Witcher сериал

iTunes

ПШазам

iTunes

Оно 2

iTunes

30
pack

Вам бонус

ВАЖНО

!!Акция!!

Alien_RageХит недели

RePack

Resident Evil 21

ИГРА 18+

pack

RePack

jed

!!Акция!!

Alien_Rage

RePack

fifa19

RePack

Assassins Creed: Odyssey

RePack

NEED FOR SPEED™ PAYBACK

4 сезон

9 сезон

Бесстыжие 9 сезон

Все сериалы

все сериалы на PB.wtf

RePack

FAR CRY 5
  

«Оскар» (92-я церемония открытия и вручения премии) / The 92nd Annual Academy Awards (Гленн Уайсс) [2020, ТВ-шоу, концерт, WEBRip 1080p] DVO pibit.top

«Оскар» через торрент pibit.top

Раздают: 1 [ 1 KB/s ]
Размер: 8.4 GB | Добавлен: 17 д. назад | Торрент скачан:31 раз
Скачать  

11-02-2020 05:19 «Оскар» Скачать торрент  

«Оскар» (92-я церемония открытия и вручения премии) / The 92nd Annual Academy Awards
Год выпуска: 2020
Страна: США
Жанр: ТВ-шоу, концерт
Продолжительность: 04:45:39
Перевод: Профессиональный (двухголосый) | Петр Федоров, Сергей Бурунов, Юлия Пересильд
Субтитры: отсутствуют

Режиссер: Гленн Уайсс

Описание: 92-я церемония вручения наград премии «Оскар» за заслуги в области кинематографа за 2019 год. Номинанты в 24 номинациях представлены Академией кинематографических искусств и наук (AMPAS) (актёрами Джоном Чо и Иссай Рэй) 13 января 2020 года. Церемония награждения состоялась 9 февраля 2020 года в театре «Долби» в Голливуде (Лос-Анджелес, штат Калифорния). После успеха прошлого года церемония вновь прошла без ведущего — в третий раз в истории (ранее — в 1989 и 2019 годах).

Качество: WEBRip 1080p
Формат: MKV

Видео: MPEG-4 AVC, 3933 Кбит/с, 1920x1080
Аудио: Русский (AC3, 2 ch, 192 Кбит/с)
скриншот  скриншот  скриншот  скриншот  

Общее
Уникальный идентификатор : 4825887500218494047875803899016680099 (0x3A16E9FB5EEBBBF085C893ED3E692A3)
Полное имя : D:\The 92nd Annual Academy Awards (2020) WEBRip 1080p.mkv
Формат : Matroska
Версия формата : Version 4 / Version 2
Размер файла : 8,40 Гбайт
Продолжительность : 4 ч. 45 м.
Общий поток : 4209 Кбит/сек
Программа кодирования : Lavf57.25.100
Библиотека кодирования : Lavf57.25.100 / Lavf57.25.100

Видео
Идентификатор : 1
Формат : AVC
Формат/Информация : Advanced Video Codec
Профиль формата : [email protected]
Параметр CABAC формата : Да
Параметр ReFrames формата : 4 кадра
Идентификатор кодека : V_MPEG4/ISO/AVC
Продолжительность : 4 ч. 45 м.
Битрейт : 3933 Кбит/сек
Ширина : 1920 пикселей
Высота : 1080 пикселей
Соотношение сторон : 16:9
Режим частоты кадров : Постоянный
Частота кадров : 30,000 кадров/сек
Цветовое пространство : YUV
Субдискретизация насыщенности : 4:2:0
Битовая глубина : 8 бит
Тип развёртки : Прогрессивная
Бит/(Пиксели*Кадры) : 0.063
Размер потока : 7,85 Гбайт (93%)
Default : Да
Forced : Нет
Цветовой диапазон : Limited
Основные цвета : BT.709
Характеристики трансфера : BT.709
Коэффициенты матрицы : BT.601
DURATION : 04:45:39.234000000

Аудио
Идентификатор : 2
Формат : AC-3
Формат/Информация : Audio Coding 3
Расширение режима : CM (complete main)
Параметр Endianness формата : Big
Идентификатор кодека : A_AC3
Продолжительность : 4 ч. 45 м.
Вид битрейта : Постоянный
Битрейт : 192 Кбит/сек
Каналы : 2 канала
Расположение каналов : Front: L R
Частота : 48,0 КГц
Частота кадров : 31,250 кадров/сек (1536 spf)
Метод сжатия : С потерями
Задержка видео : 3 мс.
Размер потока : 392 Мбайт (5%)
Default : Да
Forced : Нет
DURATION : 04:45:39.172000000
pibit.top



Скачать «Оскар» через торрент https://d.radikal.ru/d22/2002/11/8ebc006e735b.jpg Скачать фильм «Оскар» через торрент бесплантно в хорошем качестве Описание: 92-я церемония вручения наград премии «Оскар» за заслуги в области кинематографа за 2019 год. Номинанты в 24 номинациях ... 9.7 10 6
Info! Золотая раздача, скачанное не засчитывается.
Торрент: Зарегистрирован [2020-02-11 05:19] · скачан: 31 раз
Статус: √ проверено
Размер: 8.4 GB
Как cкачать? Как скачать «Оскар» через торрент | qTorrent

% Раздел Тема Автор DL S | L
Фильмы с украинским озвучиванием [ 4.84 GB ] 92-я церемония вручения премии "Оскар" / The 92nd Annual Academy Awards [2020 ТВ-Шоу DVB 576i] [Ukr] killermax2013 Скачать
2 | 0
Фильмы [HD 720p, 1080p] (Хороший звук DUB, MVO) [ 16.08 GB ] Оскар / Oscar [1991 BDRip 1080p by msltel] DUB 2 x MVO DVO 4 x AVO msltel Скачать
1 | 0
Фильмы [HD 720p, 1080p] (Хороший звук DUB, MVO) [ 5.81 GB ] Оскар / Oscar [1991 BDRip 720p by msltel] DUB 2 x MVO DVO 4 x AVO msltel Скачать
15 | 1
T Релизы по Парсеру [Игры, Сериалы и Фильмы и другое...] [ 9.13 GB ] 89-я Церемония Вручения Премии «Оскар» / The 89th Annual Academy Awards / ТРК "Украина" [26.02.2017 Церемония Награждения 576i MPEG DVB] [RU-UA] killermax2013 Скачать
1 | 0
Документальные фильмы и телепередачи [ 8.69 GB ] 88-я Церемония Вручения Премии «Оскар» / The 88th Annual Academy Awards [28.02.2016 Церемония Награждения 576i DVB] [RU UA] killermax2013 Скачать
1 | 0
T Фильмы 2015 (Звук TS, Cam, VO, DVO) [ 1.46 GB ] Смерть хиппи! Да здравствуют панки! / Tod den Hippies!! Es lebe der Punk! [2015 DVDRip] DVO PROCTOLOG Скачать
1 | 0
Фильмы с украинским озвучиванием [ 8.55 GB ] 87-я церемония вручения премии «Оскар» / The 87rd Annual Academy Awards [2015 Тв-шоу церемония награждения DVB] [DVO] killermax2013 Скачать
1 | 0

28-11-2019 20:33  

Отключить всю рекламу на сайте

    Дорогой пользователь! Огромная просьба, поблагодарите релизера, оцените раздачу и оставьте свои комментарий, если Вы скачали «Оскар» через торрент бесплатно! Внесите свою лепту в развитие PiratBit!
    Комментировать посты могут только пользователи прошедшие не сложную регистрацию
    Показать сообщения:    

    «Оскар» через торрент
    Скачать бесплатно «Оскар»
    «Оскар» скачать торрент
    «Оскар» смотреть онлайн
    Cкачать фильм «Оскар» бесплатно
    «Оскар» скачать торрент в хорошем качестве
    «Оскар» смотреть онлайн бесплатно в хорошем качестве


    Вы не можете начинать темы
    Вы не можете отвечать на сообщения
    Вы не можете редактировать свои сообщения
    Вы не можете удалять свои сообщения
    Вы не можете голосовать в опросах
    Вы не можете прикреплять файлы к сообщениям
    Вы можете скачивать файлы