Ссылка на приватное зеркало всего за 1$. Внимание количество ограничено!!!

iTunes

1+1

iTunes

мы

MV0

1

WEB-DLRip

Джокер

Пифагор

Ведьмак / The Witcher сериал

iTunes

ПШазам

iTunes

Оно 2

iTunes

30
pack

Вам бонус

ВАЖНО

!!Акция!!

Alien_RageХит недели

RePack

Resident Evil 21

ИГРА 18+

pack

RePack

jed

!!Акция!!

Alien_Rage

RePack

fifa19

RePack

Assassins Creed: Odyssey

RePack

NEED FOR SPEED™ PAYBACK

4 сезон

9 сезон

Бесстыжие 9 сезон

Все сериалы

все сериалы на PB.wtf

RePack

FAR CRY 5
  

Забери мою душу / My Soul to Take (Уэс Крэйвен) [2010, ужасы, триллер, детектив, BDRip 1080p] DUB pibit.top

Забери мою душу через торрент pibit.top

Раздают: 2 [ 0.7 KB/s ] Качают: 1 [ 0 KB/s ]
Размер: 9.06 GB | Добавлен: 11 д. назад | Торрент скачан:23 раза
Скачать  

12-02-2020 14:10 Забери мою душу Скачать торрент  

Забери мою душу | My Soul to Take
Год выпуска: 2010
Страна: США
Жанр: ужасы, триллер, детектив
Продолжительность: 01:47:17
Перевод: Дублированный
Субтитры: отсутствуют

Режиссер: Уэс Крэйвен

rating

В ролях: Макс Тириот, Джон Магаро, Дэнзел Уитакер, Ник Лашэвэй, Эмили Миде, Фрэнк Грилло, Зена Грэй, Джессика Хехт, Дэннис Буцикарис, Шарика Эппс

Описание: Сонный городишко Ривердейл ожидает исполнения пророчества: серийный убийца должен вернуться на место своих преступлений, чтобы убить семерых детей, родившихся в день его смерти. Но действительно ли маньяк мертв? Или зло переселилось в тело неосторожного подростка, которому теперь предстоит завершить страшную миссию?

Качество: BDRip 1080p
Формат: MKV

Видео: MPEG-4 AVC, 1920X816 (2.35:1), 23.976 fps, L4.1 High @ 10100 Kbps
Аудио#1: Russian: АС3, 448 kbps, 5.1ch, 48 kHz [Дубляж]
Аудио#2: English: DTS, 5.1ch, 48 kHz, 1510 kbps
скриншот  скриншот  скриншот  скриншот  скриншот  

General
Unique ID : 221044658245534458549406036480756858563 (0xA64BA7132A5BDA639954E7E5CB10BEC3)
Complete name : My.Soul.To.Take.2010.BluRay.1080p.DTS.x264-CHD.mkv
Format : Matroska
File size : 9.06 GiB
Duration : 1h 47mn
Overall bit rate : 12.1 Mbps
Encoded date : UTC 2011-02-19 20:05:15
Writing application : mkvmerge v3.3.0 ('Language') built on Mar 24 2010 14:59:24
Writing library : libebml v0.8.0 + libmatroska v0.9.0
Video #1
ID : 1
Format : AVC
Format/Info : Advanced Video Codec
Format profile : [email protected]
Format settings, CABAC : Yes
Format settings, ReFrames : 4 frames
Codec ID : V_MPEG4/ISO/AVC
Duration : 1h 47mn
Bit rate : 10.1 Mbps
Width : 1 920 pixels
Height : 816 pixels
Display aspect ratio : 2.35:1
Frame rate : 23.976 fps
Color space : YUV
Chroma subsampling : 4:2:0
Bit depth : 8 bits
Scan type : Progressive
Bits/(Pixel*Frame) : 0.270
Stream size : 7.41 GiB (82%)
Writing library : x264 core 112 r1834 a51816a
Encoding settings : cabac=1 / ref=4 / deblock=1:-3:-3 / analyse=0x3:0x113 / me=umh / subme=10 / psy=1 / psy_rd=1.00:0.10 / mixed_ref=1 / me_range=48 / chroma_me=1 / trellis=2 / 8x8dct=1 / cqm=2 / deadzone=21,11 / fast_pskip=0 / chroma_qp_offset=-2 / threads=12 / sliced_threads=0 / nr=0 / decimate=1 / interlaced=0 / constrained_intra=0 / bframes=6 / b_pyramid=2 / b_adapt=2 / b_bias=0 / direct=3 / weightb=1 / open_gop=0 / weightp=2 / keyint=250 / keyint_min=23 / scenecut=40 / intra_refresh=0 / rc_lookahead=60 / rc=2pass / mbtree=1 / bitrate=10140 / ratetol=2.0 / qcomp=0.70 / qpmin=1 / qpmax=51 / qpstep=4 / cplxblur=20.0 / qblur=0.5 / vbv_maxrate=50000 / vbv_bufsize=50000 / ip_ratio=1.40 / aq=1:0.80 / nal_hrd=none
Language : English
Audio #2
ID : 2
Format : DTS
Format/Info : Digital Theater Systems
Codec ID : A_DTS
Duration : 1h 47mn
Bit rate mode : Constant
Bit rate : 1 510 Kbps
Channel(s) : 6 channels
Channel positions : Front: L C R, Side: L R, LFE
Sampling rate : 48.0 KHz
Bit depth : 24 bits
Compression mode : Lossy
Stream size : 1.13 GiB (12%)
Language : English
Audio #3
ID : 3
Format : AC-3
Format/Info : Audio Coding 3
Mode extension : CM (complete main)
Codec ID : A_AC3
Duration : 1h 47mn
Bit rate mode : Constant
Bit rate : 448 Kbps
Channel(s) : 6 channels
Channel positions : Front: L C R, Side: L R, LFE
Sampling rate : 48.0 KHz
Bit depth : 16 bits
Compression mode : Lossy
Stream size : 344 MiB (4%)
Title : AC3; 448 Kbps @ 5.1 Kbps
Language : Russian

pibit.top



Скачать Забери мою душу через торрент http://img11.lostpic.net/2018/06/29/a4f3a128444e85abfd5894f0361f9230.jpg Скачать фильм Забери мою душу через торрент бесплантно в хорошем качестве Описание: Сонный городишко Ривердейл ожидает исполнения пророчества: серийный убийца должен вернуться на место своих преступлений, чтобы ... 10 10 3
Торрент: Зарегистрирован [2020-02-12 14:10] · скачан: 23 раз
Статус: √ проверено
Размер: 9.06 GB
Как cкачать? Как скачать Забери мою душу через торрент | qTorrent

28-11-2019 20:33  

Отключить всю рекламу на сайте

    Дорогой пользователь! Огромная просьба, поблагодарите релизера, оцените раздачу и оставьте свои комментарий, если Вы скачали Забери мою душу через торрент бесплатно! Внесите свою лепту в развитие PiratBit!
    Комментировать посты могут только пользователи прошедшие не сложную регистрацию
    Показать сообщения:    

    Забери мою душу через торрент
    Скачать бесплатно Забери мою душу
    Забери мою душу скачать торрент
    Забери мою душу смотреть онлайн
    Cкачать фильм Забери мою душу бесплатно
    Забери мою душу скачать торрент в хорошем качестве
    Забери мою душу смотреть онлайн бесплатно в хорошем качестве


    Вы не можете начинать темы
    Вы не можете отвечать на сообщения
    Вы не можете редактировать свои сообщения
    Вы не можете удалять свои сообщения
    Вы не можете голосовать в опросах
    Вы не можете прикреплять файлы к сообщениям
    Вы можете скачивать файлы