Ссылка на приватное зеркало всего за 1$. Внимание количество ограничено!!!

iTunes

1+1

iTunes

мы

MV0

1

WEB-DLRip

Джокер

Пифагор

Ведьмак / The Witcher сериал

iTunes

ПШазам

iTunes

Оно 2

iTunes

30
pack

Вам бонус

ВАЖНО

!!Акция!!

Alien_RageХит недели

RePack

Resident Evil 21

ИГРА 18+

pack

RePack

jed

!!Акция!!

Alien_Rage

RePack

fifa19

RePack

Assassins Creed: Odyssey

RePack

NEED FOR SPEED™ PAYBACK

4 сезон

9 сезон

Бесстыжие 9 сезон

Все сериалы

все сериалы на PB.wtf

RePack

FAR CRY 5
  

Крепкий сон / Mientras duermes (Жауме Балагуэро) [2011г., триллер, драма, BDRip 1080p] [MVO] (HDRezka Studio) pibit.top

Крепкий сон через торрент pibit.top

Раздают: 10 [ 0 KB/s ]
Размер: 8 GB | Добавлен: 15 д. назад | Торрент скачан:62 раза
Скачать  

13-02-2020 08:11 Крепкий сон Скачать торрент  

Крепкий сон / Mientras duermes ✦ Год выпуска: 2011
✦ Страна: Испания
✦ Жанр: триллер, драма
✦ Продолжительность: 01:41:00
✦ Перевод: Профессиональный (многоголосый, закадровый) *HDRezka Studio*
✦ Субтитры: русские (forced)

✦ Режиссёр: Жауме Балагуэро

✦ В ролях: Луис Тосар, Марта Этура, Альберто Сан Хуан, Петра Мартинес, Пеп Тосар, Карлос Ласарте, Ирис Альмейда, Манель Дуэсо, Ориол Хенис

✦ Описание: Главный герой — Сесар, работающий консьержем в небольшом жилом доме, в Барселоне. Кажется, что он маленький незаметный человек, который лишь открывает и закрывает двери, но на самом деле он тот, кто замечает и знает про жителей многоквартирного дома абсолютно всё. Он глубоко несчастлив и ищет хоть какую-нибудь причину для дальнейшего своего существования. День за днём он выполняет свою работу и, пока на него никто из жителей дома не обращает особого внимания, неустанно наблюдает за ними. Он знает каждую мелочь в их жизни, всё о них, а в особенности про одну из них…



✦ Качество: BDRip 1080p
✦ Формат: MKV
✦ Видео кодек: H.264
✦ Аудио кодек: AC3
✦ Видео: 1920x816, 10.7 Mbps, 23.976 fps
✦ Аудио: AC3, 448 kbps, 6 ch, 48 kHz
General
Unique ID : 33359832211784492912212215394571927382 (0x1918DEB6FC5A1EF3652F786961143F56)
Complete name : F:\Mientras.duermes.2011.1080p.5.1.rus.HDREZKA.STUDIO.mkv
Format : Matroska
Format version : Version 4 / Version 2
File size : 8.00 GiB
Duration : 1h 41mn
Overall bit rate mode : Variable
Overall bit rate : 11.3 Mbps
Encoded date : UTC 2019-03-14 17:46:17
Writing application : mkvmerge v24.0.0 ('Beyond The Pale') 64-bit
Writing library : libebml v1.3.6 + libmatroska v1.4.9

Video
ID : 1
Format : AVC
Format/Info : Advanced Video Codec
Format profile : [email protected]
Format settings, CABAC : Yes
Format settings, ReFrames : 3 frames
Codec ID : V_MPEG4/ISO/AVC
Duration : 1h 41mn
Bit rate mode : Variable
Bit rate : 10.7 Mbps
Maximum bit rate : 2 000 Kbps
Width : 1 920 pixels
Height : 816 pixels
Display aspect ratio : 2.35:1
Frame rate mode : Constant
Frame rate : 23.976 fps
Color space : YUV
Chroma subsampling : 4:2:0
Bit depth : 8 bits
Scan type : Progressive
Bits/(Pixel*Frame) : 0.284
Stream size : 7.52 GiB (94%)
Default : Yes
Forced : No

Audio
ID : 2
Format : AC-3
Format/Info : Audio Coding 3
Mode extension : CM (complete main)
Format settings, Endianness : Big
Codec ID : A_AC3
Duration : 1h 41mn
Bit rate mode : Constant
Bit rate : 448 Kbps
Channel(s) : 6 channels
Channel positions : Front: L C R, Side: L R, LFE
Sampling rate : 48.0 KHz
Compression mode : Lossy
Stream size : 324 MiB (4%)
Language : Russian
Default : Yes
Forced : No
скриншот  скриншот  скриншот  
pibit.top



Скачать Крепкий сон через торрент https://i111.fastpic.ru/big/2020/0213/b4/bc31af866665387f274898a4916396b4.png Скачать фильм Крепкий сон через торрент бесплантно в хорошем качестве Описание: Главный герой — Сесар, работающий консьержем в небольшом жилом доме, в Барселоне. Кажется, что он маленький незаметный человек, ... 10 10 5
Торрент: Зарегистрирован [2020-02-13 08:11] · скачан: 62 раз
Статус: √ проверено
Размер: 8 GB
Как cкачать? Как скачать Крепкий сон через торрент | qTorrent

% Раздел Тема Автор DL S | L
Фильмы 2011 [ 1013 MB ] Крепкий сон / Mientras duermes [2011 HDRip] [MVO] killermax2013 Скачать
3 | 0
Фильмы с авторской озвучкой [ 10.67 GB ] Крепкий сон / Mientras duermes [2011 BDRip 1080p] AVO VO msltel Скачать
1 | 0
Фильмы с авторской озвучкой [ 4.3 GB ] Крепкий сон / Mientras duermes [2011 BDRip 720p] AVO VO msltel Скачать
2 | 0
Фильмы 2011 [ 2.21 GB ] Крепкий сон / Mientras duermes [2011 BDRip Любительский многоголосый] _KaisiK_ Скачать
1 | 0
Фильмы 2011 [ 1.46 GB ] Крепкий сон / Mientras duermes [2011 HDRip Любительский ] {AVG} Скачать
2 | 0
Фильмы 2011 [ 697 MB ] Крепкий сон / Mientras duermes [2011 DVDRip] кэп Скачать
1 | 1
Фильмы 2011 [ 2.1 GB ] Крепкий сон / Mientras duermes [2011 DVDRip] coc900 Скачать
1 | 0


Последний раз редактировалось: killermax2013 (2020-02-13 12:16), всего редактировалось 1 раз

28-11-2019 20:33  

Отключить всю рекламу на сайте

13-02-2020 09:50 Крепкий сон Скачать торрент  

Отличный фильм.pibit.top



13-02-2020 12:26 Крепкий сон Скачать торрент  

что-то такое припоминаю.вроде очень интересное.обязательно пересмотрю.спасибо киллермакс.pibit.top
Kkillermax2013 писал(а):

*Спасибо* можно и вверху на кнопочку нажать



    Дорогой пользователь! Огромная просьба, поблагодарите релизера, оцените раздачу и оставьте свои комментарий, если Вы скачали Крепкий сон через торрент бесплатно! Внесите свою лепту в развитие PiratBit!
    Комментировать посты могут только пользователи прошедшие не сложную регистрацию
    Показать сообщения:    

    Крепкий сон через торрент
    Скачать бесплатно Крепкий сон
    Крепкий сон скачать торрент
    Крепкий сон смотреть онлайн
    Cкачать фильм Крепкий сон бесплатно
    Крепкий сон скачать торрент в хорошем качестве
    Крепкий сон смотреть онлайн бесплатно в хорошем качестве


    Вы не можете начинать темы
    Вы не можете отвечать на сообщения
    Вы не можете редактировать свои сообщения
    Вы не можете удалять свои сообщения
    Вы не можете голосовать в опросах
    Вы не можете прикреплять файлы к сообщениям
    Вы можете скачивать файлы