Ссылка на приватное зеркало всего за 1$. Внимание количество ограничено!!!

iTunes

1+1

iTunes

мы

MV0

1

WEB-DLRip

Джокер

Пифагор

Ведьмак / The Witcher сериал

iTunes

ПШазам

iTunes

Оно 2

iTunes

30
pack

Вам бонус

ВАЖНО

!!Акция!!

Alien_RageХит недели

RePack

Resident Evil 21

ИГРА 18+

pack

RePack

jed

!!Акция!!

Alien_Rage

RePack

fifa19

RePack

Assassins Creed: Odyssey

RePack

NEED FOR SPEED™ PAYBACK

4 сезон

9 сезон

Бесстыжие 9 сезон

Все сериалы

все сериалы на PB.wtf

RePack

FAR CRY 5
  

Священная ложь / Sacred Lies / Сезон: 1 / Серии: 1-10 из 10 (Скотт Уинант, Сара Бойд, Шери Фоксон) [2018, Ужасы, драма, WEBRip 720p] [MVO] (HDRezka Studio) pibit.top

Священная ложь через торрент pibit.top

Раздают: 3 [ 64 KB/s ]
Размер: 6 GB | Добавлен: 2 д. 22 ч. назад | Торрент скачан:16 раз
Скачать  

15-02-2020 11:00 Священная ложь Скачать торрент  

Священная ложь / Sacred Lies
Год выпуска: 2018
Страна: США
Жанр: Ужасы, драма
Продолжительность: 00:29:00
Перевод: Профессиональный (многоголосый закадровый) *HDRezka Studio*
Субтитры: русские (forced)

Режиссер: Скотт Уинант, Сара Бойд, Шери Фоксон

В ролях: Кевин Кэрролл, Елена Кампурис, Киана Мадейра, Леа Гибсон, Патти Ким, Замани Уайлдер, Тоби Хасс, Си Джей Джекман-Зиганто, Шанель Пелозо


Минноу Блай потеряла семью, 12 лет жизни и веру в людей, проведя многие годы среди приверженцев религиозного культа. Когда-то её отец привёл сюда свою семью в надежде на светлое будущее. Но чем это обернулось для Минноу? Когда она стала проявлять характер, её лишили рук.

Однажды лидер культа, Пророк, погибает. Минноу что-то знает о его гибели, но предпочитает хранить молчание. Оказавшись в тюрьме для несовершеннолетних, она также не спешит делиться своими секретами. Агент ФБР предлагает ей заманчивую сделку в обмен на свободу.

rating

Качество: WEBRip 720p
Контейнер: MKV
Видео: 1280x720 at 23.976 fps, MPEG-4 AVC, ~2 400 Kbps
Аудио: 48 kHz, AC3, 2 ch, ~192.00 kbps avg
General
Unique ID : 83456221671653300173738719924947868542 (0x3EC91569300770AB52548A25A2195B7E)
Complete name : F:\Sacred.Lies.2018.S01.720p\Sacred.Lies.S01E01.WEBRip.720p.rus.2.0.HDREZKA.STUDIO.mkv
Format : Matroska
Format version : Version 4 / Version 2
File size : 536 MiB
Duration : 28mn 59s
Overall bit rate mode : Variable
Overall bit rate : 2 586 Kbps
Encoded date : UTC 2020-02-14 15:56:58
Writing application : mkvmerge v28.2.0 ('The Awakening') 64-bit
Writing library : libebml v1.3.6 + libmatroska v1.4.9

Video
ID : 1
Format : AVC
Format/Info : Advanced Video Codec
Format profile : [email protected]
Format settings, CABAC : Yes
Format settings, ReFrames : 1 frame
Codec ID : V_MPEG4/ISO/AVC
Duration : 28mn 59s
Bit rate mode : Variable
Bit rate : 2 343 Kbps
Maximum bit rate : 2 000 Kbps
Width : 1 280 pixels
Height : 720 pixels
Display aspect ratio : 16:9
Frame rate mode : Constant
Frame rate : 23.976 fps
Color space : YUV
Chroma subsampling : 4:2:0
Bit depth : 8 bits
Scan type : Progressive
Bits/(Pixel*Frame) : 0.106
Stream size : 486 MiB (91%)
Default : Yes
Forced : No

Audio
ID : 2
Format : AC-3
Format/Info : Audio Coding 3
Mode extension : CM (complete main)
Format settings, Endianness : Big
Codec ID : A_AC3
Duration : 28mn 59s
Bit rate mode : Constant
Bit rate : 192 Kbps
Channel(s) : 2 channels
Channel positions : Front: L R
Sampling rate : 48.0 KHz
Compression mode : Lossy
Stream size : 39.8 MiB (7%)
Language : Russian
Default : Yes
Forced : No

скриншот   скриншот   скриншот  
Когда раздача ведётся путём добавления новых серий, при каждом добавлении создётся новый торрент. Чтобы начать докачку новой серии, пользователям необходимо сделать следующее:
(1) остановить скачивание,
(2) удалить старый торрент у себя из клиента (старые серии удалять не надо),
(3) скачать новый торрент и запустить его у себя в клиенте вместо старого, при этом указать клиенту путь в старую папку, куда и должно происходить скачивание новых серий.
Ваш клиент при этом должен произвести хеширование (проверку) старой папки (если не производит сам - помогите ему сделать это), и будет докачивать только те серии, которых у вас ещё нет. Старые серии при этом не удаляются, а продолжают раздаваться!
Eсли вы уже удалили старые серии, то предотвратить повторную закачку старых серий можно, отжав галочку в соответсвующих местах при запуске нового торрента. По возможности, желательно не удалять старые серии как можно дольше, чтобы релизёр не столько продолжал раздавать старые серии, а смог сконцентрироваться на новых.
pibit.top



Скачать Священная ложь через торрент https://i111.fastpic.ru/big/2020/0215/ce/8b66d83a671b7ce5014e441b5441d4ce.png Скачать фильм Священная ложь через торрент бесплантно в хорошем качестве В ролях: Кевин Кэрролл, Елена Кампурис, Киана Мадейра, Леа Гибсон, Патти Ким, Замани Уайлдер, Тоби Хасс, Си Джей Джекман-Зиганто, Шанель ... 10 10 2
Торрент: Зарегистрирован [2020-02-15 11:00] · скачан: 16 раз
Статус: √ проверено
Размер: 6 GB
Как cкачать? Как скачать Священная ложь через торрент | qTorrent

% Раздел Тема Автор DL S | L
Зарубежные сериалы [ 9.52 GB ] Священная ложь / Sacred Lies / Сезон: 1 / Серии: 1-10 из 10 [2018 WEBRip 1080p] [MVO] killermax2013 Скачать
7 | 0

28-11-2019 20:33  

Отключить всю рекламу на сайте

    Дорогой пользователь! Огромная просьба, поблагодарите релизера, оцените раздачу и оставьте свои комментарий, если Вы скачали Священная ложь через торрент бесплатно! Внесите свою лепту в развитие PiratBit!
    Комментировать посты могут только пользователи прошедшие не сложную регистрацию
    Показать сообщения:    

    Священная ложь через торрент
    Скачать бесплатно Священная ложь
    Священная ложь скачать торрент
    Священная ложь смотреть онлайн
    Cкачать фильм Священная ложь бесплатно
    Священная ложь скачать торрент в хорошем качестве
    Священная ложь смотреть онлайн бесплатно в хорошем качестве


    Вы не можете начинать темы
    Вы не можете отвечать на сообщения
    Вы не можете редактировать свои сообщения
    Вы не можете удалять свои сообщения
    Вы не можете голосовать в опросах
    Вы не можете прикреплять файлы к сообщениям
    Вы можете скачивать файлы